img image001 image001 image001 image001 image001 image001 image001 image001 image001 image001 image001 image001 image001 image001 image001 image001

Planets Sun Sun Sun
Статистика раздачи
Автор: Снежана | Размер: 3.72 ГБ | Добавлен: 11 авг 2013
Раздают: 61    Качают: 21
Скачать торрент
Скачать торрент
Описание торрента

СообщениеДобавлено: 11 авг 2013 

#77

Название: Убийство
Оригинальное название: The Killing
Год выпуска: 2013
Жанр: Драма, криминал, детектив
Режиссер: Эдвард Бьянчи, Дэниэл Эттиэс, Фил Абрахам
В ролях: Мирей Инос, Юэль Киннаман, Брент Секстон, Мишель Форбс, Билл Кэмпбелл, Кристин Леман, Эрик Ладин, Джэми Браун, Том Батлер, Кэти Финдлей

Описание: Сериал рассказывает об одном убийстве с трех точек зрения – детективов, приставленных к этому делу, семьи погибшей и подозреваемых. Сюжет также затрагивает местных политиков и их связь с этим делом. Постепенно становится ясно, что здесь нет случайностей, у каждого свой секрет. И хотя персонажи думают, что они продолжают жить дальше, их прошлое еще не оставило их в покое.

Выпущено: США, Канада
Продолжительность: 12 х ~ 00:43:00
Перевод: Профессиональный (многоголосый, закадровый) - LostFilm
Субтитры: Нет



Качество: WEB-DLRip
Формат: AVI
Видео: XviD, 720x400, ~1000 kbps
Аудио rus: МР3, 2 ch, 128-192 Кбит/сек

01. The Jungle / Джунгли
02. That You Fear the Most / Самый Страшный Страх
03. Seventeen / Семнадцать
04. Снимки
05. Scared and Running / Бегом от страха
06. Отчуждение собственности
07. Надежда убивает
08. Попытки
09. Отсчет
10. 6 минут
11. Отсюда и вверх
12. Дорога на Хамельн
3x01 - 02.06.2013 - The Jungle / Джунгли
3x02 - 02.06.2013 - That You Fear the Most / Самый Страшный Страх
3x03 - 09.06.2013 - Seventeen
3x04 - 16.06.2013 - Head Shots
3x05 - 23.06.2013 - Scared and Running
3x06 - 30.06.2013 - Eminent Domain
3x07 - 07.07.2013 - Hope Kills
3x08 - 14.07.2013 - Episode 8
3x09 - 21.07.2013 - Episode 9
3x10 - 28.07.2013 - Episode 10
3x11 - 04.08.2013 - Episode 11
3x12 - 04.08.2013 - Episode 12
Полное имя : D:Dian KehtLostFilmThe.Killing.S03E01.rus.LostFilm.TV.avi
Формат : AVI
Формат/Информация : Audio Video Interleave
Размер файла : 355 Мбайт
Продолжительность : 43 м.
Общий поток : 1148 Кбит/сек
Программа кодирования : Nandub v1.0rc2
Библиотека кодирования : Nandub build 1853/release

Видео
Идентификатор : 0
Формат : MPEG-4 Visual
Профиль формата : Simple@L3
Параметр BVOP формата : Нет
Параметр QPel формата : Нет
Параметр GMC формата : Без точки перехода
Параметр матрицы формата : Default (H.263)
Идентификатор кодека : XVID
Идентификатор кодека/Подсказка : XviD
Продолжительность : 43 м.
Битрейт : 949 Кбит/сек
Ширина : 720 пикс.
Высота : 400 пикс.
Соотношение сторон : 16:9
Частота кадров : 23,976 кадр/сек
Цветовое пространство : YUV
Подвыборка цветности : 4:2:0
Битовая глубина : 8 бит
Тип развёртки : Прогрессивная
Метод сжатия : С потерями
Бит/(Пиксели*Кадры) : 0.137
Размер потока : 293 Мбайт (83%)
Библиотека кодирования : XviD 1.2.1 (UTC 2008-12-04)

Аудио
Идентификатор : 1
Формат : MPEG Audio
Версия формата : Version 1
Профиль формата : Layer 3
Режим : Joint stereo
Идентификатор кодека : 55
Идентификатор кодека/Подсказка : MP3
Продолжительность : 43 м.
Вид битрейта : Переменный
Битрейт : 192 Кбит/сек
Каналы : 2 канала
Частота : 48,0 КГц
Метод сжатия : С потерями
Размер потока : 57,6 Мбайт (16%)
Выравнивание : Соединение по промежуткам
Продолжительность промежутка : 24 мс. (0,58 видеокадр)
Время предзагрузки промежутка : 533 ms
Библиотека кодирования : LAME3.97b
Настройки программы : -m j -V 4 -q 3 -lowpass 18.6 --abr 192



Релиз от:



   Похожие торренты   Торрент   Размер 
В этой теме нет новых непрочитанных сообщений. Убийство / The Killing [S03] (2013) WEB-DLRip от Scarabey | LostFilm

31 | 10

9.05 ГБ

В этой теме нет новых непрочитанных сообщений. Убийство / The Killing [S01-04] (2011-2014) WEB-DLRip 720p | LostFilm

64 | 358

61.82 ГБ

В этой теме нет новых непрочитанных сообщений. Убийство / The Killing [S01-04] (2011-2014) WEB-DLRip, WEBRip | LostFilm

248 | 213

17.14 ГБ

В этой теме нет новых непрочитанных сообщений. Убийство / The Killing [S01-04] (2011-2014) WEB-DLRip от Generalfilm | КПК | LostFilm

58 | 31

8.91 ГБ

В этой теме нет новых непрочитанных сообщений. Убийство / The Killing [s03] (2013) WEB-DL 720p | LostFilm

20 | 11

17.53 ГБ

В этой теме нет новых непрочитанных сообщений. Убийство / The Killing [04x01 из 06] (2014) WEBRip | LostFilm

279 | 7

450.44 МБ

В этой теме нет новых непрочитанных сообщений. Убийство / The Killing [S04] (2014) WEBRip от Scarabey | LostFilm

65 | 34

5.46 ГБ




Вы не можете начинать темы
Вы не можете отвечать на сообщения
Вы не можете редактировать свои сообщения
Вы не можете удалять свои сообщения
Вы не можете добавлять вложения

Перейти:  
 Вход
ppkBB3cker v.2 © 2008-2014 @ PPK
[ Time : 0.024s | 15 Queries | GZIP : Off ]

cron