img image001 image001 image001 image001 image001 image001 image001 image001 image001 image001 image001 image001 image001 image001 image001

Planets Sun Sun Sun
Статистика раздачи
Автор: Снежана | Размер: 6.86 ГБ | Добавлен: 11 авг 2013
Раздают: 0    Качают: 2
Скачать торрент
Скачать торрент
Описание торрента

СообщениеДобавлено: 11 авг 2013 

#77

Название: Рэй Донован
Оригинальное название: Ray Donovan
Год выпуска: 2013
Жанр: Драма, криминал
Режиссер: Аллен Култер
В ролях: Лив Шрайбер, Девон Бэгби, Уильям Стэнфорд Дэвис, Кэтрин Менниг, Фрэнк Уэйли, Октавиус Дж. Джонсон

Описание: Сериал расскажет о Рэе Доноване, профессиональном "разруливателе проблем", которого вызывают, когда у кого-то из "богатых и знаменитых"
жителей Лос-Анджелеса возникают сложности.





Страна: США, Showtime
Продолжительность: 06 x ~ 00:58:00
Перевод: Профессиональный (многоголосый, закадровый) - NewStudio
Субтитры: Нет

Перевод: Weirdie
Постер: Андрей Шапал

Качество: HDTVRip 720р
Формат: МКV
Видео: MPEG-4 AVC, 2519 kb/s, 1280x720
Аудио rus: AC3, 6 ch, 384 Кбит
Аудио eng: AC3, 6 ch, 384 Кбит

01. Пакет или Бита
02. Рот есть рот
03. Тверк
04. Черный кадиллак
05. Голем
06. Новоселье
Общее
Уникальный идентификатор : 207430955025571447255582439801378768446 (0x9C0DBFAF3CBFB9618CD154EED137063E)
Полное имя : D:Dian KehtNewStudioRay.Donovan.s01e01.HDTV.720p.NewStudio.TV.mkv
Формат : Matroska
Размер файла : 1,37 Гбайт
Продолжительность : 58 м.
Общий поток : 3354 Кбит/сек
Дата кодирования : UTC 2013-06-22 13:28:31
Программа кодирования : mkvmerge v6.2.0 ('Promised Land') built on Apr 28 2013 12:22:01
Библиотека кодирования : libebml v1.3.0 + libmatroska v1.4.0

Видео
Идентификатор : 1
Формат : AVC
Формат/Информация : Advanced Video Codec
Профиль формата : High@L4.1
Параметр CABAC формата : Да
Параметр ReFrames формата : 5 кадров
Идентификатор кодека : V_MPEG4/ISO/AVC
Продолжительность : 58 м.
Битрейт : 2519 Кбит/сек
Ширина : 1280 пикс.
Высота : 720 пикс.
Соотношение сторон : 16:9
Частота кадров : 23,976 кадр/сек
Цветовое пространство : YUV
Подвыборка цветности : 4:2:0
Битовая глубина : 8 бит
Тип развёртки : Прогрессивная
Бит/(Пиксели*Кадры) : 0.114
Размер потока : 1,03 Гбайт (75%)
Библиотека кодирования : x264 core 133 r2334 a3ac64b
Настройки программы : cabac=1 / ref=5 / deblock=1:0:0 / analyse=0x3:0x113 / me=umh / subme=8 / psy=1 / psy_rd=1.00:0.00 / mixed_ref=1 / me_range=16 / chroma_me=1 / trellis=1 / 8x8dct=1 / cqm=0 / deadzone=21,11 / fast_pskip=1 / chroma_qp_offset=-2 / threads=18 / lookahead_threads=3 / sliced_threads=0 / nr=0 / decimate=1 / interlaced=0 / bluray_compat=0 / constrained_intra=0 / bframes=3 / b_pyramid=2 / b_adapt=2 / b_bias=0 / direct=3 / weightb=1 / open_gop=0 / weightp=2 / keyint=250 / keyint_min=23 / scenecut=40 / intra_refresh=0 / rc_lookahead=50 / rc=crf / mbtree=1 / crf=18.0 / qcomp=0.60 / qpmin=0 / qpmax=69 / qpstep=4 / ip_ratio=1.40 / aq=1:1.00
Язык : English
Коэффициенты матрицы : BT.709-5, BT.1361, IEC 61966-2-4 709, SMPTE RP177

Аудио #1
Идентификатор : 2
Формат : AC-3
Формат/Информация : Audio Coding 3
Расширение режима : CM (complete main)
Идентификатор кодека : A_AC3
Продолжительность : 58 м.
Вид битрейта : Постоянный
Битрейт : 384 Кбит/сек
Каналы : 6 каналов
Расположение каналов : Front: L C R, Side: L R, LFE
Частота : 48,0 КГц
Битовая глубина : 16 бит
Метод сжатия : С потерями
Размер потока : 161 Мбайт (11%)
Язык : Russian

Аудио #2
Идентификатор : 3
Формат : AC-3
Формат/Информация : Audio Coding 3
Расширение режима : CM (complete main)
Идентификатор кодека : A_AC3
Продолжительность : 58 м.
Вид битрейта : Постоянный
Битрейт : 384 Кбит/сек
Каналы : 6 каналов
Расположение каналов : Front: L C R, Side: L R, LFE
Частота : 48,0 КГц
Битовая глубина : 16 бит
Метод сжатия : С потерями
Размер потока : 161 Мбайт (11%)
Язык : English



Релиз от:



   Похожие торренты   Торрент   Размер 
В этой теме нет новых непрочитанных сообщений. Рэй Донован / Ray Donovan [01х01-03] (2013) HDTVRip 720р | NewStudio

0 | 2

3.8 ГБ

В этой теме нет новых непрочитанных сообщений. Рэй Донован / Ray Donovan [01х01-03] (2013) HDTVRip | NewStudio

2 | 3

2.05 ГБ

В этой теме нет новых непрочитанных сообщений. Рэй Донован / Ray Donovan [01х01-06 из 12] (2013) HDTVRip | NewStudio

3 | 7

4.1 ГБ

В этой теме нет новых непрочитанных сообщений. Рэй Донован / Ray Donovan [03х01-02 из 12] (2015) HDTVRip 720р | NewStudio

144 | 90

2.33 ГБ

В этой теме нет новых непрочитанных сообщений. Рэй Донован / Ray Donovan [03х01-10 из 12] (2015) HDTVRip 720р | NewStudio

234 | 630

10.09 ГБ

В этой теме нет новых непрочитанных сообщений. Рэй Донован / Ray Donovan [03х01-07 из 12] (2015) HDTVRip 720р | NewStudio

149 | 224

6.98 ГБ

В этой теме нет новых непрочитанных сообщений. Рэй Донован / Ray Donovan [03х01-09 из 12] (2015) HDTVRip 720р | NewStudio

189 | 442

9 ГБ




Вы не можете начинать темы
Вы не можете отвечать на сообщения
Вы не можете редактировать свои сообщения
Вы не можете удалять свои сообщения
Вы не можете добавлять вложения

Перейти:  
Для Мосгорсуда, Роскомнадзора и рекламодателей: mosgorsud-torrent[собачка]yandex.ru
 Вход
ppkBB3cker v.2 © 2008-2014 @ PPK
[ Time : 0.065s | 16 Queries | GZIP : Off ]

Торрент трекер RUTOR.IN, Не можете зайти на rutor.org? Какой новый адрес рутор? Какое зеркало рутор? Не работает rutor.org и зеркала? Тогда наш торрент специально для вас. Rutor.in неофициальное зеркало rutor. В случае если у Вас заблокирован rutor или вдруг Вы не можете на него зайти, то Вы без труда сможете скачать бесплатно и без рекламы последние новинки кино, игр, сериалов и прочего у нас, на Rutor.in. Не нужно использовать прокси, чтобы зайти на рутор, достаточно воспользоваться нашим ресурсом. Все новые фильмы, игры, сериалы, книги и музыка за 2013 и 2014 годы через торрент бесплатно. Скачивайте фильмы в хорошем качестве, игры для пк, xbox, playstation без регистрации. У нас вы найдете новые Зарубежные сериалы и Русские сериалы 2013, 2014, 2015 годов. Оставайтесь с нами, качайте любимые фильмы, игры, сериалы, книги и музыку.
cron