img image001 image001 image001 image001 image001 image001 image001 image001 image001 image001 image001 image001 image001 image001 image001

Planets Sun Sun Sun
Статистика раздачи
Автор: Снежана | Размер: 4.1 ГБ | Добавлен: 12 авг 2013
Раздают: 3    Качают: 7
Скачать торрент
Скачать торрент
Описание торрента

СообщениеДобавлено: 12 авг 2013 

#77

Название: Рэй Донован
Оригинальное название: Ray Donovan
Год выпуска: 2013
Жанр: Драма, криминал
Режиссер: Аллен Култер
В ролях: Лив Шрайбер, Девон Бэгби, Уильям Стэнфорд Дэвис, Кэтрин Менниг, Фрэнк Уэйли, Октавиус Дж. Джонсон

Описание: Сериал расскажет о Рэе Доноване, профессиональном "разруливателе проблем", которого вызывают, когда у кого-то из "богатых и знаменитых"
жителей Лос-Анджелеса возникают сложности.





Страна: США, Showtime
Продолжительность: 06 x ~ 00:58:00
Перевод: Профессиональный (многоголосый, закадровый) - NewStudio
Субтитры: нет

Перевод: Weirdie
Постер: Андрей Шапал

Качество: HDTVRip
Формат: AVI
Видео: XviD, ~ 1500 Кбит/с, 720x400
Аудио rus: MP3, 2 ch, 128 Кбит
Аудио eng: MP3, 2 ch, 128 Кбит

01. Пакет или Бита
02. Рот есть рот
03. Тверк
04. Черный кадиллак
05. Голем
06. Новоселье
Общее
Полное имя : D:Dian KehtNewStudioRay.Donovan.s01e01.HDTVRip.NewStudio.TV.avi
Формат : AVI
Формат/Информация : Audio Video Interleave
Размер файла : 700 Мбайт
Продолжительность : 58 м.
Общий поток : 1665 Кбит/сек
Программа кодирования : VirtualDubMod 1.5.10.2 (build 2540/release)
Библиотека кодирования : VirtualDubMod build 2540/release

Видео
Идентификатор : 0
Формат : MPEG-4 Visual
Профиль формата : Advanced Simple@L5
Параметр BVOP формата : 2
Параметр QPel формата : Нет
Параметр GMC формата : Без точки перехода
Параметр матрицы формата : Default (MPEG)
Идентификатор кодека : XVID
Идентификатор кодека/Подсказка : XviD
Продолжительность : 58 м.
Битрейт : 1395 Кбит/сек
Ширина : 720 пикс.
Высота : 400 пикс.
Соотношение сторон : 16:9
Частота кадров : 23,976 кадр/сек
Цветовое пространство : YUV
Подвыборка цветности : 4:2:0
Битовая глубина : 8 бит
Тип развёртки : Прогрессивная
Метод сжатия : С потерями
Бит/(Пиксели*Кадры) : 0.202
Размер потока : 587 Мбайт (84%)
Библиотека кодирования : XviD 64

Аудио #1
Идентификатор : 1
Формат : MPEG Audio
Версия формата : Version 1
Профиль формата : Layer 3
Режим : Joint stereo
Расширение режима : MS Stereo
Идентификатор кодека : 55
Идентификатор кодека/Подсказка : MP3
Продолжительность : 58 м.
Вид битрейта : Постоянный
Битрейт : 128 Кбит/сек
Каналы : 2 канала
Частота : 48,0 КГц
Метод сжатия : С потерями
Размер потока : 53,8 Мбайт (8%)
Выравнивание : Соединение по промежуткам
Продолжительность промежутка : 42 мс. (1,00 видеокадр)
Время предзагрузки промежутка : 504 ms

Аудио #2
Идентификатор : 2
Формат : MPEG Audio
Версия формата : Version 1
Профиль формата : Layer 3
Режим : Joint stereo
Идентификатор кодека : 55
Идентификатор кодека/Подсказка : MP3
Продолжительность : 58 м.
Вид битрейта : Постоянный
Битрейт : 128 Кбит/сек
Каналы : 2 канала
Частота : 48,0 КГц
Метод сжатия : С потерями
Размер потока : 53,8 Мбайт (8%)
Выравнивание : Соединение по промежуткам
Продолжительность промежутка : 42 мс. (1,00 видеокадр)
Время предзагрузки промежутка : 504 ms
Библиотека кодирования : LAME3.99r
Настройки программы : -m j -V 4 -q 2 -lowpass 17 -b 128



Релиз от:



   Похожие торренты   Торрент   Размер 
В этой теме нет новых непрочитанных сообщений. Рэй Донован / Ray Donovan [01х01-03] (2013) HDTVRip | NewStudio

2 | 3

2.05 ГБ

В этой теме нет новых непрочитанных сообщений. Рэй Донован / Ray Donovan [01х01-06 из 12] (2013) HDTVRip 720р | NewStudio

0 | 2

6.86 ГБ

В этой теме нет новых непрочитанных сообщений. Рэй Донован / Ray Donovan [01х01-03] (2013) HDTVRip 720р | NewStudio

0 | 2

3.8 ГБ

В этой теме нет новых непрочитанных сообщений. Рэй Донован / Ray Donovan [S01] (2013) HDTVRip | P | NewStudio

780 | 162

8.2 ГБ

В этой теме нет новых непрочитанных сообщений. Рэй Донован / Ray Donovan [S01] (2013) HDTVRip 720p | NewStudio

58 | 30

13.19 ГБ

В этой теме нет новых непрочитанных сообщений. Рэй Донован / Ray Donovan [01х12 из 13] (2013) HDTVRip | NewStudio

2 | 2

700.03 МБ

В этой теме нет новых непрочитанных сообщений. Рэй Донован / Ray Donovan [S01-S02](2013- 2014) HDTVRip 720p l NewStudio

43 | 124

31.41 ГБ




Вы не можете начинать темы
Вы не можете отвечать на сообщения
Вы не можете редактировать свои сообщения
Вы не можете удалять свои сообщения
Вы не можете добавлять вложения

Перейти:  
Для Мосгорсуда, Роскомнадзора и рекламодателей: mosgorsud-torrent[собачка]yandex.ru
 Вход
ppkBB3cker v.2 © 2008-2014 @ PPK
[ Time : 0.044s | 15 Queries | GZIP : Off ]

Торрент трекер RUTOR.IN, Не можете зайти на rutor.org? Какой новый адрес рутор? Какое зеркало рутор? Не работает rutor.org и зеркала? Тогда наш торрент специально для вас. Rutor.in неофициальное зеркало rutor. В случае если у Вас заблокирован rutor или вдруг Вы не можете на него зайти, то Вы без труда сможете скачать бесплатно и без рекламы последние новинки кино, игр, сериалов и прочего у нас, на Rutor.in. Не нужно использовать прокси, чтобы зайти на рутор, достаточно воспользоваться нашим ресурсом. Все новые фильмы, игры, сериалы, книги и музыка за 2013 и 2014 годы через торрент бесплатно. Скачивайте фильмы в хорошем качестве, игры для пк, xbox, playstation без регистрации. У нас вы найдете новые Зарубежные сериалы и Русские сериалы 2013, 2014, 2015 годов. Оставайтесь с нами, качайте любимые фильмы, игры, сериалы, книги и музыку.