img image001 image001 image001 image001 image001 image001 image001 image001 image001 image001 image001 image001 image001 image001 image001

Planets Sun Sun Sun
Статистика раздачи
Автор: Снежана | Размер: 4.07 ГБ | Добавлен: 12 авг 2013
Раздают: 71    Качают: 103
Скачать торрент
Скачать торрент
Описание торрента

СообщениеДобавлено: 12 авг 2013 

Под куполом / Under the Dome

#77

Год выпуска: 2013
Страна: США
Жанр: фантастика, ужасы
Продолжительность: 1 серия ~ 43 мин
Перевод: Профессиональный (многоголосый, закадровый) Lostfilm
Субтитры: нет

Режиссёр: Джек Бендер / Jack Bender, Нильс Арден Оплев / Niels Arden Oplev

В ролях: Майк Фогель, Колин Форд, Аиша Хиндс, Александр Кох, Рашель Лефевр, Натали Мартинез, Дин Норрис, Джолин Парди, Бриттани Робертсон, Николас Стронг, Нед Беллами, Дэйл Рауль, Р. Кейт Харрис, Стив Болдуин, Шерри Боулинг, Кевин Сайзмор, Эндрю Фогель, Джеймс Алком, Линдс Эдвардс, Джефф Фэйи, Кристал Мартинез, Маккензи Линтц

Описание: Обычным погожим осенним днем город Честерс Милл, штат Мэн, оказывается внезапно отрезанным от остального мира невидимым барьером. В купол врезается самолет. Загадочное силовое поле не щадит ни постройки, ни автомобили, ни животных, ни людей. Выехавшие в соседний город по делам не могут вернуться к своим близким. Никто не понимает, что это за барьер, откуда он взялся и исчезнет ли.
Дейл Барбара, ветеран войны в Ираке, а ныне повар, теперь в одной команде с несколькими отважными жителями — Джулией Шамвей, владелицей городской газеты, помощником врача, женщиной и тремя храбрыми детьми. Против них выступает Большой Джим Ренни — местный политический деятель, который для удержания власти не остановится ни перед чем, даже перед убийством, а также его сын со своим личным «скелетом в шкафу». Но главный их противник — сам Купол…




Качество: WEB-DLRip-AVC
Формат: MKV
Видео кодек: H264
Аудио кодек: AC3
Видео: 864x488 (16:9), 23.976 fps, H264, 1 754 Kbps, 0.174 bit/pixel
Аудио: 48 kHz, AC3 Dolby Digital, 2/0 (L,R) ch, ~192.00 kbps avg

Раздача от:


D:Under.the.Dome.S01.WEB-DLRip-AVC.by_dexter_lexUnder.the.Dome.S01E01.WEB-DLRip-AVC.by_dexter_lex.mkv
General
Unique ID : 229900853228813349018284641135045702422 (0xACF54B3306D18950A52B19E32104F316)
Complete name : D:Under.the.Dome.S01.WEB-DLRip-AVC.by_dexter_lexUnder.the.Dome.S01E01.WEB-DLRip-AVC.by_dexter_lex.mkv
Format : Matroska
Format version : Version 2
File size : 598 MiB
Duration : 42mn 56s
Overall bit rate : 1 948 Kbps
Encoded date : UTC 2013-07-17 10:24:52
Writing application : mkvmerge v6.1.0 ('Old Devil') built on Mar 4 2013 09:10:42
Writing library : libebml v1.3.0 + libmatroska v1.4.0
Video #1
ID : 1
Format : AVC
Format/Info : Advanced Video Codec
Format profile : High@L4.1
Format settings, CABAC : Yes
Format settings, ReFrames : 8 frames
Codec ID : V_MPEG4/ISO/AVC
Duration : 42mn 56s
Bit rate : 1 754 Kbps
Width : 864 pixels
Height : 488 pixels
Display aspect ratio : 16:9
Frame rate : 23.976 fps
Color space : YUV
Chroma subsampling : 4:2:0
Bit depth : 8 bits
Scan type : Progressive
Bits/(Pixel*Frame) : 0.174
Stream size : 527 MiB (88%)
Writing library : x264 core 130 r2273 b3065e6
Encoding settings : cabac=1 / ref=9 / deblock=1:-2:-2 / analyse=0x3:0x113 / me=umh / subme=9 / psy=1 / psy_rd=1.00:0.15 / mixed_ref=1 / me_range=32 / chroma_me=1 / trellis=2 / 8x8dct=1 / cqm=0 / deadzone=21,11 / fast_pskip=0 / chroma_qp_offset=-3 / threads=6 / lookahead_threads=1 / sliced_threads=0 / nr=0 / decimate=1 / interlaced=0 / bluray_compat=0 / constrained_intra=0 / bframes=9 / b_pyramid=2 / b_adapt=1 / b_bias=0 / direct=3 / weightb=1 / open_gop=0 / weightp=2 / keyint=240 / keyint_min=23 / scenecut=40 / intra_refresh=0 / rc_lookahead=60 / rc=2pass / mbtree=1 / bitrate=1754 / ratetol=1.0 / qcomp=0.60 / qpmin=0 / qpmax=69 / qpstep=4 / cplxblur=20.0 / qblur=0.5 / ip_ratio=1.40 / aq=1:1.00
Default : Yes
Forced : No
Audio #2
ID : 2
Format : AC-3
Format/Info : Audio Coding 3
Mode extension : CM (complete main)
Codec ID : A_AC3
Duration : 42mn 56s
Bit rate mode : Constant
Bit rate : 192 Kbps
Channel(s) : 2 channels
Channel positions : Front: L R
Sampling rate : 48.0 KHz
Bit depth : 16 bits
Compression mode : Lossy
Stream size : 59.0 MiB (10%)
Default : Yes
Forced : No

Раздача ведётся путём добавления новых серий; при каждом добавлении создаётся новый торрент. Чтобы начать докачку новой серии, пользователям необходимо сделать следующее:
(1) остановить скачивание,
(2) удалить старый торрент у себя из клиента (старые серии удалять не надо),
(3) скачать новый торрент и запустить его у себя в клиенте вместо старого, при этом указать клиенту путь в старую папку куда и должно происходить скачивание новых серий.

Ваш клиент при этом должен произвести хеширование (проверку) старой папки (если не производит сам - помогите ему сделать это), и будет докачивать только те серии которых у вас ещё нет. Старые серии при этом не удаляются, а продолжают раздаваться!

Eсли вы уже удалили старые серии, то предотвратить повторную закачку старых серий можно, отжав галочку в соответствующих местах при запуске нового торрента. По возможности, желательно не удалять старые серии как можно дольше чтобы релизёр не столько продолжал раздавать старые серии, а смог сконцентрироваться на новых.



   Похожие торренты   Торрент   Размер 
В этой теме нет новых непрочитанных сообщений. Под куполом / Under the Dome [01x01-04 из 13] (2013) WEB-DLRip-AVC от Youtracker | LostFilm

0 | 2

2.32 ГБ

В этой теме нет новых непрочитанных сообщений. Под куполом / Under the Dome [01x01-04 из 13] (2013) WEB-DLRip | LostFilm

0 | 2

2.3 ГБ

В этой теме нет новых непрочитанных сообщений. Под куполом / Under the Dome [01x01-07 из 13] (2013) WEB-DLRip от Scarabey | LostFilm

3 | 4

4.95 ГБ

В этой теме нет новых непрочитанных сообщений. Под куполом / Under the Dome [01x01-04 из 13] (2013) WEB-DLRip от Scarabey | LostFilm

1 | 2

2.84 ГБ

В этой теме нет новых непрочитанных сообщений. Под куполом / Under the Dome [01x01-05 из 13] (2013) WEB-DLRip-AVC от New-team | LostFilm

6 | 2

2.91 ГБ

В этой теме нет новых непрочитанных сообщений. Под куполом / Under the Dome [01x01-02 из 13] (2014) WEB-DLRip от Scarabey | LostFilm

36 | 41

1.41 ГБ

В этой теме нет новых непрочитанных сообщений. Под куполом / Under the Dome [01x01-03 из 13] (2014) WEB-DLRip от Scarabey | LostFilm

38 | 75

2.09 ГБ




Вы не можете начинать темы
Вы не можете отвечать на сообщения
Вы не можете редактировать свои сообщения
Вы не можете удалять свои сообщения
Вы не можете добавлять вложения

Перейти:  
Для Мосгорсуда, Роскомнадзора и рекламодателей: mosgorsud-torrent[собачка]yandex.ru
 Вход
ppkBB3cker v.2 © 2008-2014 @ PPK
[ Time : 0.033s | 15 Queries | GZIP : Off ]

Торрент трекер RUTOR.IN, Не можете зайти на rutor.org? Какой новый адрес рутор? Какое зеркало рутор? Не работает rutor.org и зеркала? Тогда наш торрент специально для вас. Rutor.in неофициальное зеркало rutor. В случае если у Вас заблокирован rutor или вдруг Вы не можете на него зайти, то Вы без труда сможете скачать бесплатно и без рекламы последние новинки кино, игр, сериалов и прочего у нас, на Rutor.in. Не нужно использовать прокси, чтобы зайти на рутор, достаточно воспользоваться нашим ресурсом. Все новые фильмы, игры, сериалы, книги и музыка за 2013 и 2014 годы через торрент бесплатно. Скачивайте фильмы в хорошем качестве, игры для пк, xbox, playstation без регистрации. У нас вы найдете новые Зарубежные сериалы и Русские сериалы 2013, 2014, 2015 годов. Оставайтесь с нами, качайте любимые фильмы, игры, сериалы, книги и музыку.