img image001 image001 image001 image001 image001 image001 image001 image001 image001 image001 image001 image001 image001 image001 image001

Planets Sun Sun Sun
Статистика раздачи
Автор: Снежана | Размер: 2.08 ГБ | Добавлен: 12 авг 2013
Раздают: 47    Качают: 11
Скачать торрент
Скачать торрент
Описание торрента

СообщениеДобавлено: 12 авг 2013 

#77


Страна: Россия
Производство: Синема Спейс
Жанр: Боевик
Год выпуска: 1999

Продолжительность: 2 х ~ 01:15:00
Язык: Русский

Оригинальная аудиодорожка: Нет

Cубтитры: Нет
Режиссер: Игорь Талпа
В ролях: Игорь Гузун, Лада Марис, Нику Сувейкэ, Эмиль Гажу, Михаил Бурлаков, Замира Колхиева, Владимир Майсурадзе, Василий Малов, Евгений Мызников, Юрий Чуприн


Описание: Владелец бара Боб использует свою сестру, скрипачку Кристину, пристрастившуюся к наркотикам, для транспортировки «белого яда». Пользуясь симпатией артистки, в банду наркодельцов внедряется специальный агент управления по борьбе с организованной преступностью майор милиции Георгий Иванович, по кличке Титаник.Он получает место телохранителя Кристины. Склонность к импровизациям неожиданно приводит его к ситуации, когда надо выбирать между долгом и совестью… Но Титаник отказывается от выбора…
Тип релиза: TVRip

Контейнер: AVI

Семпл
Видео: 720x400 (1.80:1), 25 fps, DivX ~1935 kbps avg, 0.27 bit/pixel
Аудио: 44.100 kHz, 2.0 ~64.00 kbps avg
Общее
Полное имя : D:1АААВозвращение Титаника1.avi
Формат : AVI
Формат/Информация : Audio Video Interleave
Размер файла : 1,04 Гбайт
Продолжительность : 1 ч. 14 м.
Общий поток : 2013 Кбит/сек
Программа кодирования : Lavf52.0.0
Библиотека кодирования : VirtualDub build 32842/release

Видео
Идентификатор : 0
Формат : MPEG-4 Visual
Параметр BVOP формата : 1
Параметр QPel формата : Нет
Параметр GMC формата : Без точки перехода
Параметр матрицы формата : Default (H.263)
Режим смешивания : Сжатый битовый поток
Идентификатор кодека : DX50
Идентификатор кодека/Подсказка : DivX 5
Продолжительность : 1 ч. 14 м.
Битрейт : 1936 Кбит/сек
Ширина : 720 пикселей
Высота : 400 пикселей
Соотношение сторон : 16:9
Частота кадров : 25,000 кадров/сек
Цветовое пространство : YUV
Субдискретизация насыщенности : 4:2:0
Битовая глубина : 8 бит
Тип развёртки : Прогрессивная
Метод сжатия : С потерями
Бит/(Пиксели*Кадры) : 0.269
Размер потока : 1,00 Гбайт (96%)
Библиотека кодирования : DivX 6.8.5 (UTC 2009-08-20)

Аудио
Идентификатор : 1
Формат : MPEG Audio
Версия формата : Version 1
Профиль формата : Layer 3
Идентификатор кодека : 55
Идентификатор кодека/Подсказка : MP3
Продолжительность : 1 ч. 14 м.
Вид битрейта : Постоянный
Битрейт : 64,0 Кбит/сек
Каналы : 1 канал
Частота : 44,1 КГц
Метод сжатия : С потерями
Размер потока : 34,0 Мбайт (3%)
Выравнивание : Соединение по промежуткам
Продолжительность промежутка : 26 мс. (0,65 видеокадр)
Время предзагрузки промежутка : 522 мс.






   Похожие торренты   Торрент   Размер 
В этой теме нет новых непрочитанных сообщений. Искушение Титаника / Возвращение Титаника 2 [01-12 из 12] (2004) DVDRip

3 | 17

4.69 ГБ

В этой теме нет новых непрочитанных сообщений. Легенда Титаника / La leggenda del Titanic / The legend of the Titanic (1999) DVDRip | P

94 | 22

1.37 ГБ

В этой теме нет новых непрочитанных сообщений. Возвращение со звёзд (1989) TVRip

107 | 36

2.67 ГБ

В этой теме нет новых непрочитанных сообщений. Белые росы. Возвращение (2014) TVRip

1534 | 64

814.89 МБ

В этой теме нет новых непрочитанных сообщений. Бородин. Возвращение генерала [01-08 из 08] (2008) TVRip

64 | 7

3.13 ГБ

В этой теме нет новых непрочитанных сообщений. Возвращение Мухтара 2 [02x01-50] (2006) TVRip

12 | 7

20.96 ГБ

В этой теме нет новых непрочитанных сообщений. Тайный знак 2: Возвращение хозяина [01-08 из 08] (2003) TVRip

12 | 9

4.24 ГБ




Вы не можете начинать темы
Вы не можете отвечать на сообщения
Вы не можете редактировать свои сообщения
Вы не можете удалять свои сообщения
Вы не можете добавлять вложения

Перейти:  
Для Мосгорсуда, Роскомнадзора и рекламодателей: mosgorsud-torrent[собачка]yandex.ru
 Вход
ppkBB3cker v.2 © 2008-2014 @ PPK
[ Time : 0.050s | 16 Queries | GZIP : Off ]

Торрент трекер RUTOR.IN, Не можете зайти на rutor.org? Какой новый адрес рутор? Какое зеркало рутор? Не работает rutor.org и зеркала? Тогда наш торрент специально для вас. Rutor.in неофициальное зеркало rutor. В случае если у Вас заблокирован rutor или вдруг Вы не можете на него зайти, то Вы без труда сможете скачать бесплатно и без рекламы последние новинки кино, игр, сериалов и прочего у нас, на Rutor.in. Не нужно использовать прокси, чтобы зайти на рутор, достаточно воспользоваться нашим ресурсом. Все новые фильмы, игры, сериалы, книги и музыка за 2013 и 2014 годы через торрент бесплатно. Скачивайте фильмы в хорошем качестве, игры для пк, xbox, playstation без регистрации. У нас вы найдете новые Зарубежные сериалы и Русские сериалы 2013, 2014, 2015 годов. Оставайтесь с нами, качайте любимые фильмы, игры, сериалы, книги и музыку.