img image001 image001 image001 image001 image001 image001 image001 image001 image001 image001 image001 image001 image001 image001 image001

Planets Sun Sun Sun
Статистика раздачи
Автор: Снежана | Размер: 4.69 ГБ | Добавлен: 12 авг 2013
Раздают: 3    Качают: 17
Скачать торрент
Скачать торрент
Описание торрента

СообщениеДобавлено: 12 авг 2013 

#77

Страна: Россия
Производство: Ракурс
Жанр: Детектив
Год выпуска: 2004
Режиссер: Игорь Талпа, Сергей Виноградов
В ролях: Игорь Гузун, Сергей Виноградов, Сергей Векслер, Сергей Шнырев, Маргарита Шубина, Лев Прыгунов, Владимир Сулимов, Валентин Смирнитский, Юрий Ваксман, Владимир Гусев

Описание: Титаник получает задание — войти в контакт с крупным лидером региональной преступной группировки по кличке Никей, который принимает участие в выборах на пост губернатора богатейшей области России. Шансы криминального авторитета на победу возрастают с каждым днем. Задача Титаника — организовать арест Никея с поличным на каком-то конкретном незаконном деянии, чтобы помешать ему баллотироваться, и одновременно обезглавить ОПГ…

Язык: Русский
Cубтитры: Нет
Продолжительность: 12 x ~ 00:44:00



Качество: DVDRip
Формат: AVI
Видео: 640x368 (1.74:1), 25 fps, XviD ~1134 kbps avg, 0.19 bit/pixel
Аудио: MP3, 48 kHz, 2.0 ~128.00 kbps avg

Общее
Полное имя : D:1АААIskushenie_titanika_1-12Iskushenie_titanika_01of12_ceryj_RussPlaneta_com.avi
Формат : AVI
Формат/Информация : Audio Video Interleave
Размер файла : 400 Мбайт
Продолжительность : 44 м.
Общий поток : 1270 Кбит/сек
Программа кодирования : VirtualDubMod 1.5.4.1 (build 2178/release)
Библиотека кодирования : VirtualDubMod build 2178/release

Видео
Идентификатор : 0
Формат : MPEG-4 Visual
Профиль формата : Advanced Simple@L5
Параметр BVOP формата : 1
Параметр QPel формата : Нет
Параметр GMC формата : Без точки перехода
Параметр матрицы формата : Выборочная
Идентификатор кодека : XVID
Идентификатор кодека/Подсказка : XviD
Продолжительность : 44 м.
Битрейт : 1134 Кбит/сек
Ширина : 640 пикселей
Высота : 368 пикселей
Соотношение сторон : 1,739
Частота кадров : 25,000 кадров/сек
Цветовое пространство : YUV
Субдискретизация насыщенности : 4:2:0
Битовая глубина : 8 бит
Тип развёртки : Прогрессивная
Метод сжатия : С потерями
Бит/(Пиксели*Кадры) : 0.193
Размер потока : 357 Мбайт (89%)
Библиотека кодирования : XviD 1.2.0.dev47 (UTC 2006-11-01)

Аудио
Идентификатор : 1
Формат : MPEG Audio
Версия формата : Version 1
Профиль формата : Layer 3
Режим : Joint stereo
Расширение режима : MS Stereo
Идентификатор кодека : 55
Идентификатор кодека/Подсказка : MP3
Продолжительность : 44 м.
Вид битрейта : Постоянный
Битрейт : 128 Кбит/сек
Каналы : 2 канала
Частота : 48,0 КГц
Метод сжатия : С потерями
Размер потока : 40,3 Мбайт (10%)
Выравнивание : Соединение по промежуткам
Продолжительность промежутка : 80 мс. (2,00 видеокадра)
Время предзагрузки промежутка : 504 мс.
Библиотека кодирования : LAME3.97
Настройки программы : -m j -V 4 -q 2 -lowpass 17 -b 128





   Похожие торренты   Торрент   Размер 
В этой теме нет новых непрочитанных сообщений. Возвращение Титаника [01-02 из 02] (1999) TVRip

47 | 11

2.08 ГБ

В этой теме нет новых непрочитанных сообщений. Гибель Титаника / A Night To Remember (1958) DVDRip от ExKinoRay

29 | 4

1.46 ГБ

В этой теме нет новых непрочитанных сообщений. Курсом Титаника (2012) SATRip

3 | 1

480.41 МБ

В этой теме нет новых непрочитанных сообщений. Тайна гибели «Титаника» (2008) SATRip RG.MixTorrent

5 | 4

566.07 МБ

В этой теме нет новых непрочитанных сообщений. Горничная с "Титаника" / La Femme de Chambre du Titanic (1997) DVDRip

31 | 5

1.47 ГБ

В этой теме нет новых непрочитанных сообщений. Гибель Титаника / A Night to Remember (1958) BDRip от ExKinoRay

1 | 2

1.63 ГБ

В этой теме нет новых непрочитанных сообщений. Барышня и кулинар.Обед с Титаника [эфир 04.05] (2014) SATRip

9 | 2

243.68 МБ




Вы не можете начинать темы
Вы не можете отвечать на сообщения
Вы не можете редактировать свои сообщения
Вы не можете удалять свои сообщения
Вы не можете добавлять вложения

Перейти:  
Для Мосгорсуда, Роскомнадзора и рекламодателей: mosgorsud-torrent[собачка]yandex.ru
 Вход
ppkBB3cker v.2 © 2008-2014 @ PPK
[ Time : 0.533s | 16 Queries | GZIP : Off ]

Торрент трекер RUTOR.IN, Не можете зайти на rutor.org? Какой новый адрес рутор? Какое зеркало рутор? Не работает rutor.org и зеркала? Тогда наш торрент специально для вас. Rutor.in неофициальное зеркало rutor. В случае если у Вас заблокирован rutor или вдруг Вы не можете на него зайти, то Вы без труда сможете скачать бесплатно и без рекламы последние новинки кино, игр, сериалов и прочего у нас, на Rutor.in. Не нужно использовать прокси, чтобы зайти на рутор, достаточно воспользоваться нашим ресурсом. Все новые фильмы, игры, сериалы, книги и музыка за 2013 и 2014 годы через торрент бесплатно. Скачивайте фильмы в хорошем качестве, игры для пк, xbox, playstation без регистрации. У нас вы найдете новые Зарубежные сериалы и Русские сериалы 2013, 2014, 2015 годов. Оставайтесь с нами, качайте любимые фильмы, игры, сериалы, книги и музыку.
cron