img image001 image001 image001 image001 image001 image001 image001 image001 image001 image001 image001 image001 image001 image001 image001
Planets Sun Sun Sun
Статистика раздачи
Автор: PriZraK | Размер: 3.05 ГБ | Добавлен: 15 фев 2014
Раздают: 17    Качают: 8
Скачать торрент
Скачать торрент
Описание торрента

СообщениеДобавлено: 15 фев 2014 




Информация о фильме
Название: Хранилище 13
Оригинальное название: Warehouse 13
Год выхода: 2010
Жанр: фантастика, триллер, драма, детектив
Режиссер: Джейс Александр, Винс Мисиано, Стивен Серджик
В ролях: Эдди МакКлинток, Джоэнн Келли, Сол Рубинек, Дженелл Уильямс, Саймон Рейнольдс, Эллисон Скальотти, Си Си Эйч Паундер, Роджер Рис, Сузанна Хартер, Гэбриел Хоган, Тайлер Хайнс и др.

О фильме:
После спасения жизни президента, двух агентов Секретной службы переводят на секретный объект в штате Южная Дакота. Там содержатся сверхъестественные вещи, которые правительство США собирало в течение столетий. Их новое назначение - вернуть часть пропавших вещей и расследовать сообщения о новых...

Страна: США
Продолжительность серии: ~45 мин.
Перевод: Профессиональный (многоголосый закадровый) LostFilm



Файл
Кодек: H264 (AVC)
Качество: WEB-DLRip
Видео: AVC at 649 Кбит/сек, 640 x 352 (1.800) at 23.976 fps
Звук: AAC at 128 Кбит/сек, 2 канала, 48,0 КГц
Субтитры: Отсутствуют

Семпл

Новый парень (The New Guy)
В ожидании решения (Trials)
Зараза-любовь (Love Sick)
Королева на день (Queen For a Day)
3 . . . 2 . . . 1 (3... 2... 1)
Надо уметь выигрывать (Don't Hate the Player)
Прошлое возвращается (Past Imperfect)
На сороковом этаже (The 40th Floor)
Тени (Shadows)
Ненасытные (Insatiable)
Эмили Лейк (Emily Lake)
Оборона (Stand)
[*]Величайший подарок (The Greatest Gift)
Код:
 Общее
Полное имя                               : Warehouse.13.s03e01.mp4
Формат                                   : MPEG-4
Профиль формата                          : Base Media
Идентификатор кодека                     : isom
Размер файла                             : 244 Мбайт
Продолжительность                        : 43 м.
Общий поток                              : 776 Кбит/сек
Исполнитель                              : RG BrodimCom
Программа кодирования                    : XviD4PSP 6.0 / 54.14.100

Видео
Идентификатор                            : 1
Формат                                   : AVC
Формат/Информация                        : Advanced Video Codec
Профиль формата                          : Main@L4.1
Параметр CABAC формата                   : Да
Параметр ReFrames формата                : 3 кадра
Идентификатор кодека                     : avc1
Идентификатор кодека/Информация          : Advanced Video Coding
Продолжительность                        : 43 м.
Битрейт                                  : 649 Кбит/сек
Ширина                                   : 640 пикселей
Высота                                   : 352 пикселя
Соотношение сторон                       : 16:9
Режим частоты кадров                     : Постоянный
Частота кадров                           : 23,976 кадра/сек
Цветовое пространство                    : YUV
Субдискретизация насыщенности            : 4:2:0
Битовая глубина                          : 8 бит
Тип развёртки                            : Прогрессивная
Бит/(Пиксели*Кадры)                      : 0.120
Размер потока                            : 202 Мбайт (83%)
Библиотека кодирования                   : x264 core 125 r2200M 999b753
Настройки программы                      : cabac=1 / ref=3 / deblock=1:0:0 / analyse=0x1:0x131 / me=hex / subme=7 / psy=1 / psy_rd=1.00:0.20 / mixed_ref=1 / me_range=16 / chroma_me=1 / trellis=1 / 8x8dct=0 / cqm=0 / deadzone=21,11 / fast_pskip=1 / chroma_qp_offset=-3 / threads=2 / lookahead_threads=1 / sliced_threads=0 / nr=0 / decimate=1 / interlaced=0 / bluray_compat=0 / constrained_intra=0 / bframes=3 / b_pyramid=0 / b_adapt=2 / b_bias=0 / direct=3 / weightb=1 / open_gop=0 / weightp=0 / keyint=230 / keyint_min=23 / scenecut=40 / intra_refresh=0 / rc_lookahead=40 / rc=cbr / mbtree=1 / bitrate=649 / ratetol=1.0 / qcomp=0.60 / qpmin=10 / qpmax=51 / qpstep=4 / vbv_maxrate=649 / vbv_bufsize=1835 / nal_hrd=none / ip_ratio=1.40 / aq=1:1.00

Аудио
Идентификатор                            : 2
Формат                                   : AAC
Формат/Информация                        : Advanced Audio Codec
Профиль формата                          : LC
Идентификатор кодека                     : 40
Продолжительность                        : 43 м.
Вид битрейта                             : Постоянный
Битрейт                                  : 128 Кбит/сек
Каналы                                   : 2 канала
Расположение каналов                     : Front: L R
Частота                                  : 48,0 КГц
Метод сжатия                             : С потерями
Задержка видео                           : 42 мс.
Размер потока                            : 40,1 Мбайт (16%)



Релиз от:



   Похожие торренты   Торрент   Размер 
В этой теме нет новых непрочитанных сообщений. Хранилище 13 / Warehouse 13 [S04] (2012) WEB-DLRip | КПК | LostFilm

34 | 11

4.64 ГБ

В этой теме нет новых непрочитанных сообщений. Хранилище 13 / Warehouse 13 [S05] (2014) WEB-DLRip | LostFilm

763 | 709

3.47 ГБ

В этой теме нет новых непрочитанных сообщений. Хранилище 13 / Warehouse 13 [S01-05] (2009-2014) WEB-DLRip | LostFilm

38 | 73

43.41 ГБ

В этой теме нет новых непрочитанных сообщений. Хранилище 13 / Warehouse 13 [05х01-02 из 06] (2014) WEB-DLRip | LostFilm

482 | 277

1.14 ГБ

В этой теме нет новых непрочитанных сообщений. Хранилище 13 / Warehouse 13 [05х01-05 из 06] (2014) WEB-DLRip | LostFilm

169 | 98

2.91 ГБ

В этой теме нет новых непрочитанных сообщений. Хранилище 13 / Warehouse 13 [S01-04] (2009-2013) WEB-DLRip | LostFilm

7 | 10

24.65 ГБ

В этой теме нет новых непрочитанных сообщений. Хранилище 13 / Warehouse 13 [05х01 из 06] (2014) WEB-DLRip | LostFilm

1360 | 235

653.77 МБ




Вы не можете начинать темы
Вы не можете отвечать на сообщения
Вы не можете редактировать свои сообщения
Вы не можете удалять свои сообщения
Вы не можете добавлять вложения

Перейти:  
Для Мосгорсуда, Роскомнадзора и рекламодателей: mosgorsud-torrent[собачка]yandex.ru
 Вход
ppkBB3cker v.2 © 2008-2014 @ PPK
[ Time : 0.061s | 20 Queries | GZIP : Off ]

cron