img image001 image001 image001 image001 image001 image001 image001 image001 image001 image001 image001 image001 image001 image001 image001

Planets Sun Sun Sun
Статистика раздачи
Автор: PriZraK | Размер: 4.27 ГБ | Добавлен: 15 фев 2014
Раздают: 97    Качают: 14
Скачать торрент
Скачать торрент
Описание торрента

СообщениеДобавлено: 15 фев 2014 




Информация о фильме
Название: Жозеф Бальзамо
Оригинальное название: Joseph Balsamo
Год выхода: 1973
Жанр: Исторический, авантюрно-приключенческий
Режиссер: Андрэ Юнебель
В ролях: Жан Маре, Удо Кир, Ги Трежан, Henri Guisol, Дорис Кунстманн, Louise Marleau, Олимпия Карлизи, Бернард Элейн, Габриэль Каттан, Леонс Корн

О фильме:
По мотивам знаменитого авантюрного романа Александра Дюма, в основу которого легли реальные исторические события времен правления Людовика XV. Центральной фигурой сериала является таинственный граф Алессандро Калиостро (он же - Жозеф (Джузеппе) Бальзамо, граф Сен-Жермен), искусный врач, "чародей", великий магистр масонского ордена, в сети интриг которого попадают многие влиятельные персоны высшего света европейских государств.

Исторический. 1770 год, Париж накануне Французской революции. Великие магистры влиятельных тайных обществ поручают Жозефу Бальзамо способствовать свержению абсолютизма. Бальзамо отправляется в Париж вместе с женой Лоренцой, которая умеет читать прошлое, угадывать настоящее и предвидеть будущее. Однако Лоренца опасается, что тяготеющая над ней оккультная власть мужа погубит ее душу...

Страна: Франция, Австрия
Продолжительность: 7 серий х ~ 00:53:00
Перевод: Профессиональный (многоголосый, закадровый)

Файл
Кодек: XviD
Качество: DVDRip
Видео: 640x480 (1.33:1), 25 fps, 1564 kbps avg, 0.20 bit/pixel
Звук:
Аудио: #1(рус): 48 kHz, MPEG Layer 3, 2 ch, ~128.00 kbps avg
Audio #2(франц): 48 kHz, MPEG Layer 3, 2 ch, ~128.00 kbps avg
Субтитры: Нет

Формат : AVI
Формат/Информация : Audio Video Interleave
Размер файла : 705 Мбайт
Продолжительность : 53 м.
Общий поток : 1836 Кбит/сек
Программа кодирования : VirtualDubMod 1.5.10.2 (build 2540/release)
Библиотека кодирования : VirtualDubMod build 2540/release

Видео
Идентификатор : 0
Формат : MPEG-4 Visual
Профиль формата : Advanced Simple@L5
Параметр BVOP формата : 3
Параметр QPel формата : Да
Параметр GMC формата : 3 точки перехода
Параметр матрицы формата : Default (H.263)
Режим смешивания : Сжатый битовый поток
Идентификатор кодека : XVID
Идентификатор кодека/Подсказка : XviD
Продолжительность : 53 м.
Битрейт : 1565 Кбит/сек
Ширина : 640 пикселей
Высота : 480 пикселей
Соотношение сторон : 4:3
Частота кадров : 25,000 кадров/сек
Цветовое пространство : YUV
Субдискретизация насыщенности : 4:2:0
Битовая глубина : 8 бит
Тип развёртки : Прогрессивная
Метод сжатия : С потерями
Бит/(Пиксели*Кадры) : 0.204
Размер потока : 601 Мбайт (85%)
Библиотека кодирования : XviD 1.2.1 (UTC 2008-12-04)

Аудио #1
Идентификатор : 1
Формат : MPEG Audio
Версия формата : Version 1
Профиль формата : Layer 3
Режим : Joint stereo
Идентификатор кодека : 55
Идентификатор кодека/Подсказка : MP3
Продолжительность : 53 м.
Вид битрейта : Постоянный
Битрейт : 128 Кбит/сек
Каналы : 2 канала
Частота : 48,0 КГц
Метод сжатия : С потерями
Размер потока : 49,2 Мбайт (7%)
Выравнивание : Соединение по промежуткам
Продолжительность промежутка : 40 мс. (1,00 видеокадр)
Время предзагрузки промежутка : 504 мс.

Аудио #2
Идентификатор : 2
Формат : MPEG Audio
Версия формата : Version 1
Профиль формата : Layer 3
Идентификатор кодека : 55
Идентификатор кодека/Подсказка : MP3
Продолжительность : 53 м.
Вид битрейта : Постоянный
Битрейт : 128 Кбит/сек
Каналы : 2 канала
Частота : 48,0 КГц
Метод сжатия : С потерями
Размер потока : 49,2 Мбайт (7%)
Выравнивание : Соединение по промежуткам
Продолжительность промежутка : 40 мс. (1,00 видеокадр)
Время предзагрузки промежутка : 504 мс.
Библиотека кодирования : LAME3.98r
Настройки программы : -m s -V 4 -q 2 -lowpass 17 -b 128




   Похожие торренты   Торрент   Размер 
В этой теме нет новых непрочитанных сообщений. Железный флаг / Tie qi men (1980) DVDRip от ikusha76

2 | 19

1.37 ГБ

В этой теме нет новых непрочитанных сообщений. Дуэль до смерти / Xian si jue (1983) DVDRip От ikusha76

3 | 4

744.67 МБ

В этой теме нет новых непрочитанных сообщений. Легендарное оружие Китая / Shi ba ban wu yi (1982) DVDRip от ikusha76

4 | 1

1.38 ГБ

В этой теме нет новых непрочитанных сообщений. Боевой клуб / Wu guan (1981) DVDRip от ikusha76

11 | 5

1.37 ГБ

В этой теме нет новых непрочитанных сообщений. Боец с Жёлтой реки / Huang he da xia (1988) DVDRip от ikusha76

6 | 5

1.37 ГБ

В этой теме нет новых непрочитанных сообщений. Чужаки в монастыре Шаолинь / Sam chong Siu Lam (1983) DVDRip от ikusha76

0 | 7

1.36 ГБ

В этой теме нет новых непрочитанных сообщений. Архаты в ярости / Arhats in Fury (1985) DVDRip-AVC от ikusha76

2 | 16

1.23 ГБ




Вы не можете начинать темы
Вы не можете отвечать на сообщения
Вы не можете редактировать свои сообщения
Вы не можете удалять свои сообщения
Вы не можете добавлять вложения

Перейти:  
Для Мосгорсуда, Роскомнадзора и рекламодателей: mosgorsud-torrent[собачка]yandex.ru
 Вход
ppkBB3cker v.2 © 2008-2014 @ PPK
[ Time : 0.046s | 14 Queries | GZIP : Off ]

Торрент трекер RUTOR.IN, Не можете зайти на rutor.org? Какой новый адрес рутор? Какое зеркало рутор? Не работает rutor.org и зеркала? Тогда наш торрент специально для вас. Rutor.in неофициальное зеркало rutor. В случае если у Вас заблокирован rutor или вдруг Вы не можете на него зайти, то Вы без труда сможете скачать бесплатно и без рекламы последние новинки кино, игр, сериалов и прочего у нас, на Rutor.in. Не нужно использовать прокси, чтобы зайти на рутор, достаточно воспользоваться нашим ресурсом. Все новые фильмы, игры, сериалы, книги и музыка за 2013 и 2014 годы через торрент бесплатно. Скачивайте фильмы в хорошем качестве, игры для пк, xbox, playstation без регистрации. У нас вы найдете новые Зарубежные сериалы и Русские сериалы 2013, 2014, 2015 годов. Оставайтесь с нами, качайте любимые фильмы, игры, сериалы, книги и музыку.