img image001 image001 image001 image001 image001 image001 image001 image001 image001 image001 image001 image001 image001 image001 image001

Planets Sun Sun Sun
Статистика раздачи
Автор: PriZraK | Размер: 63.29 МБ | Добавлен: 15 фев 2014
Раздают: 8    Качают: 3
Скачать торрент
Скачать торрент
Описание торрента

СообщениеДобавлено: 15 фев 2014 







Информация о фильме
Название: Ходячие Мертвецы
Оригинальное название: The Walking Dead
Год выхода: 2013
Жанр: ужасы, драма
Режиссер: Фрэнк Дарабонт
В ролях: Джон Бернтал, Лори Холден, Эндрю Линкольн, Адам Минарович, Майкл Рукер, Сара Уэйн Кэллис

О фильме:
После страшной болезни, превратившей жителей Земли в зомби, небольшая группа пока еще живых людей изо дня в день борется за выживание в новом, враждебном мире. Под предводительством бывшего полицейского Рика они ищут безопасное для жизни место, но зомби — это не самое страшное, что их ждет, основная опасность — это жестокое внутреннее соперничество среди выживших.


Официальный сайт

Страна: США
Продолжительность: 00:04:26
Перевод: Профессиональный (многоголосый, закадровый)

Файл
Формат: MPEG-4
Кодек: x264
Качество: HDTVRip-AVC
Видео: 1280x720 (16:9), 1800 kbps, 25,000 fps
Звук: Rus: 44 kHz, 2/0 (L,R) ch, 183 kbps
Субтитры: Нет

Общее
Полное имя : TWDS4.mp4
Формат : MPEG-4
Профиль формата : Base Media
Идентификатор кодека : isom
Размер файла : 63,3 Мбайт
Продолжительность : 4 м. 26 с.
Режим общего битрейта : Переменный
Общий поток : 1992 Кбит/сек
Программа кодирования : Lavf54.59.106

Видео
Идентификатор : 1
Формат : AVC
Формат/Информация : Advanced Video Codec
Профиль формата : High@L3.1
Параметр CABAC формата : Да
Параметр ReFrames формата : 4 кадра
Идентификатор кодека : avc1
Идентификатор кодека/Информация : Advanced Video Coding
Продолжительность : 4 м. 26 с.
Битрейт : 1800 Кбит/сек
Ширина : 1280 пикселей
Высота : 720 пикселей
Соотношение сторон : 16:9
Режим частоты кадров : Постоянный
Частота кадров : 25,000 кадров/сек
Цветовое пространство : YUV
Субдискретизация насыщенности : 4:2:0
Битовая глубина : 8 бит
Тип развёртки : Прогрессивная
Бит/(Пиксели*Кадры) : 0.078
Размер потока : 57,3 Мбайт (91%)
Библиотека кодирования : x264 core 123 r2189 35cf912
Настройки программы : cabac=1 / ref=3 / deblock=1:0:0 / analyse=0x3:0x133 / me=hex / subme=7 / psy=1 / psy_rd=1.00:0.00 / mixed_ref=1 / me_range=16 / chroma_me=1 / trellis=1 / 8x8dct=1 / cqm=0 / deadzone=21,11 / fast_pskip=1 / chroma_qp_offset=-2 / threads=3 / sliced_threads=0 / nr=0 / decimate=1 / interlaced=0 / bluray_compat=0 / constrained_intra=0 / bframes=3 / b_pyramid=2 / b_adapt=1 / b_bias=0 / direct=1 / weightb=1 / open_gop=0 / weightp=2 / keyint=250 / keyint_min=25 / scenecut=40 / intra_refresh=0 / rc_lookahead=40 / rc=2pass / mbtree=1 / bitrate=1800 / ratetol=1.0 / qcomp=0.60 / qpmin=10 / qpmax=51 / qpstep=4 / cplxblur=20.0 / qblur=0.5 / ip_ratio=1.40 / aq=1:1.00
Дата пометки : UTC 2013-07-28 02:44:33

Аудио
Идентификатор : 2
Формат : AAC
Формат/Информация : Advanced Audio Codec
Профиль формата : LC
Идентификатор кодека : 40
Продолжительность : 4 м. 26 с.
Вид битрейта : Переменный
Битрейт : 183 Кбит/сек
Максимальный битрейт : 192 Кбит/сек
Каналы : 2 канала
Расположение каналов : Front: L R
Частота : 44,1 КГц
Метод сжатия : С потерями
Задержка видео : -80 мс.
Размер потока : 5,81 Мбайт (9%)
Дата пометки : UTC 2013-07-28 02:44:33


Канал AMC официально подтвердил информацию о продлении сериала Ходячие мертвецы на 4 сезон. Он также как и предыдущие выйдет в октябре, а именно 14 октября. Уже подтверждено, что он будет состоять из 16 серий, производство началось 6 мая этого года в штате Джорджия.
Вместо Глена Маззары покинувшего проект из-за разногласий с каналом, новым шоураннером сериала будет Скотт Гимпл, также к команде присоединятся два новых сценариста - Кертис Гуинн и Ченнинг Пауэлл.




   Похожие торренты   Торрент   Размер 
В этой теме нет новых непрочитанных сообщений. Ходячие Мертвецы / The Walking Dead [02x00] (2011) HDTV | Трейлер

0 | 2

81.88 МБ

В этой теме нет новых непрочитанных сообщений. Ходячие мертвецы / The Walking Dead [03х00] (2012) WEBRip 720p | Трейлер

2 | 2

40.27 МБ

В этой теме нет новых непрочитанных сообщений. Ходячие мертвецы / The Walking Dead [03х13] (2013) HDTVRip | Sub

1 | 2

349.8 МБ

В этой теме нет новых непрочитанных сообщений. Ходячие мертвецы / The Walking Dead [04х11] (2013) HDTVRip | Sub

1 | 2

741.12 МБ

В этой теме нет новых непрочитанных сообщений. Ходячие мертвецы / The Walking Dead [04х01-08] (2013) HDTVRip | Sub

0 | 2

2.89 ГБ

В этой теме нет новых непрочитанных сообщений. Ходячие мертвецы / The Walking Dead [04х01-14] (2013) HDTVRip | Sub

15 | 51

4.92 ГБ

В этой теме нет новых непрочитанных сообщений. Ходячие мертвецы / The Walking Dead [03х14] (2013) HDTVRip 720p | Sub

0 | 2

1.23 ГБ




Вы не можете начинать темы
Вы не можете отвечать на сообщения
Вы не можете редактировать свои сообщения
Вы не можете удалять свои сообщения
Вы не можете добавлять вложения

Перейти:  
Для Мосгорсуда, Роскомнадзора и рекламодателей: mosgorsud-torrent[собачка]yandex.ru
 Вход
ppkBB3cker v.2 © 2008-2014 @ PPK
[ Time : 0.032s | 16 Queries | GZIP : On ]

Торрент трекер RUTOR.IN, Не можете зайти на rutor.org? Какой новый адрес рутор? Какое зеркало рутор? Не работает rutor.org и зеркала? Тогда наш торрент специально для вас. Rutor.in неофициальное зеркало rutor. В случае если у Вас заблокирован rutor или вдруг Вы не можете на него зайти, то Вы без труда сможете скачать бесплатно и без рекламы последние новинки кино, игр, сериалов и прочего у нас, на Rutor.in. Не нужно использовать прокси, чтобы зайти на рутор, достаточно воспользоваться нашим ресурсом. Все новые фильмы, игры, сериалы, книги и музыка за 2013 и 2014 годы через торрент бесплатно. Скачивайте фильмы в хорошем качестве, игры для пк, xbox, playstation без регистрации. У нас вы найдете новые Зарубежные сериалы и Русские сериалы 2013, 2014, 2015 годов. Оставайтесь с нами, качайте любимые фильмы, игры, сериалы, книги и музыку.