img image001 image001 image001 image001 image001 image001 image001 image001 image001 image001 image001 image001 image001 image001 image001

Planets Sun Sun Sun
Статистика раздачи
Автор: PriZraK | Размер: 4.14 ГБ | Добавлен: 15 фев 2014
Раздают: 43    Качают: 40
Скачать торрент
Скачать торрент
Описание торрента

СообщениеДобавлено: 15 фев 2014 




Информация о фильме
Название: Лютер
Оригинальное название: Luther
Год выхода: 2013
Жанр: Психологический детектив, криминальный триллер
Режиссер: Сэм Миллер, Брайан Кирк, Стефан Шварц
В ролях: Идрис Эльба, Рут Уилсон, Уоррен Браун, Стивен Макинтош, Индира Варма, Саския Ривз, Пол МакГэнн, Дермот Краули, Майкл Смайли, Никки Амука-Берд, Эйми-Ффион Эдвардс, Кирстон Вэрэйнг, Дэвид Даусон, Пэм Феррис, Алан Уильямс, Стивен Робертсон, Энтон Саундерс, Ли Инглби, Мэттью Марш, Ли Николас Харрис, Майк Пэриш, Джеффри Ламб, Шон Пертуи, Луиз Роуз, Сэм Спруэлл, Катрин Бэлаведж, Катрин Хэмилтон, Пол Рис, Эндрю Тирнан, Роб Джарвис, Николя Уолкер, Йохан Майерс

О фильме:
Драматическая психологическая картина, в которой рассказывается о детективе, обладающем гениальными способностями в своём деле, однако скрывающем своих внутренних демонов. На самом деле он способен на такие же страшные преступления, что и те отбросы общества, за которыми он охотится…

Страна: Великобритания
Продолжительность: 4 x ~ 00:57:00
Перевод: Любительский одноголосый - Дмитрий Штамп "sf@irat"

Файл
Кодек: x264
Качество: HDTVRip 720p
Видео: ~ 2500 Кбит/с, 1280x720, 25 кадр/с
Звук: Русский, английский (AC3, 2 ch, 192 Кбит/с)
Общее
Уникальный идентификатор : 252655033132157056621394680035581449884 (0xBE1396E2530F2D2EB3445F281659569C)
Полное имя : luther s3luther.3x04.720p_hdtv_x264-sf@irat.mkv
Формат : Matroska
Версия формата : Version 4 / Version 2
Размер файла : 1,05 Гбайт
Продолжительность : 58 м.
Общий поток : 2575 Кбит/сек
Название фильма : Created by filin1984 for Кинозал.ТВ
Дата кодирования : UTC 2013-08-02 06:52:56
Программа кодирования : mkvmerge v6.3.0 ('You can't stop me!') built on Jun 28 2013 20:09:41
Библиотека кодирования : libebml v1.3.0 + libmatroska v1.4.0

Видео
Идентификатор : 1
Формат : AVC
Формат/Информация : Advanced Video Codec
Профиль формата : High@L4.1
Параметр CABAC формата : Да
Параметр ReFrames формата : 5 кадров
Идентификатор кодека : V_MPEG4/ISO/AVC
Продолжительность : 58 м.
Битрейт : 2139 Кбит/сек
Ширина : 1280 пикселей
Высота : 720 пикселей
Соотношение сторон : 16:9
Режим частоты кадров : Постоянный
Частота кадров : 25,000 кадров/сек
Цветовое пространство : YUV
Субдискретизация насыщенности : 4:2:0
Битовая глубина : 8 бит
Тип развёртки : Прогрессивная
Бит/(Пиксели*Кадры) : 0.093
Размер потока : 896 Мбайт (83%)
Библиотека кодирования : x264 core 133 r2334 a3ac64b
Настройки программы : cabac=1 / ref=5 / deblock=1:0:0 / analyse=0x3:0x113 / me=umh / subme=8 / psy=1 / psy_rd=1.00:0.00 / mixed_ref=1 / me_range=16 / chroma_me=1 / trellis=1 / 8x8dct=1 / cqm=0 / deadzone=21,11 / fast_pskip=1 / chroma_qp_offset=-2 / threads=12 / lookahead_threads=2 / sliced_threads=0 / nr=0 / decimate=1 / interlaced=0 / bluray_compat=0 / constrained_intra=0 / bframes=3 / b_pyramid=2 / b_adapt=2 / b_bias=0 / direct=3 / weightb=1 / open_gop=0 / weightp=2 / keyint=250 / keyint_min=25 / scenecut=40 / intra_refresh=0 / rc_lookahead=50 / rc=crf / mbtree=1 / crf=18.0 / qcomp=0.60 / qpmin=0 / qpmax=69 / qpstep=4 / ip_ratio=1.40 / aq=1:1.00
Язык : English
Default : Да
Forced : Нет

Аудио #1
Идентификатор : 2
Формат : AC-3
Формат/Информация : Audio Coding 3
Расширение режима : CM (complete main)
Параметр Endianness формата : Big
Идентификатор кодека : A_AC3
Продолжительность : 58 м.
Вид битрейта : Постоянный
Битрейт : 192 Кбит/сек
Каналы : 2 канала
Расположение каналов : Front: L R
Частота : 48,0 КГц
Битовая глубина : 16 бит
Метод сжатия : С потерями
Размер потока : 80,4 Мбайт (7%)
Заголовок : sf@irat
Язык : Russian
Default : Да
Forced : Нет

Аудио #2
Идентификатор : 3
Формат : AC-3
Формат/Информация : Audio Coding 3
Расширение режима : CM (complete main)
Параметр Endianness формата : Big
Идентификатор кодека : A_AC3
Продолжительность : 58 м.
Вид битрейта : Постоянный
Битрейт : 192 Кбит/сек
Каналы : 2 канала
Расположение каналов : Front: L R
Частота : 48,0 КГц
Битовая глубина : 16 бит
Метод сжатия : С потерями
Размер потока : 80,4 Мбайт (7%)
Язык : English
Default : Нет
Forced : Нет






   Похожие торренты   Торрент   Размер 
В этой теме нет новых непрочитанных сообщений. Лютер / Luther [03x01-03 из 04] (2013) HDTVRip 720p | L1

0 | 1

3.09 ГБ

В этой теме нет новых непрочитанных сообщений. Лютер / Luther [S01-03] (2010-2013) HDTVRip, WEB-DL, WEB-DLRip 720p | Кубик в Кубе

199 | 100

19.76 ГБ

В этой теме нет новых непрочитанных сообщений. Лютер / Luther [S01-03] (2010-2013) HDTVRip 720p, WEB-DL 720p | Кубик в Кубе

194 | 117

22.87 ГБ

В этой теме нет новых непрочитанных сообщений. Лютер / Luther [S01] (2010) HDTVRip 720p | Кубик в Кубе

179 | 75

8.23 ГБ

В этой теме нет новых непрочитанных сообщений. Лютер / Luther [s03] (2013) WEB-DL 720p | Кубик в Кубе

230 | 22

7.55 ГБ

В этой теме нет новых непрочитанных сообщений. Лютер / Luther [S01-03] (2010-2013) HDTVRip, WEB-DLRip | Кубик в Кубе

339 | 162

9.77 ГБ

В этой теме нет новых непрочитанных сообщений. Лютер / Luther [S02] (2011) HDTVRip

21 | 3

2.91 ГБ




Вы не можете начинать темы
Вы не можете отвечать на сообщения
Вы не можете редактировать свои сообщения
Вы не можете удалять свои сообщения
Вы не можете добавлять вложения

Перейти:  
Для Мосгорсуда, Роскомнадзора и рекламодателей: mosgorsud-torrent[собачка]yandex.ru
 Вход
ppkBB3cker v.2 © 2008-2014 @ PPK
[ Time : 0.555s | 14 Queries | GZIP : Off ]

Торрент трекер RUTOR.IN, Не можете зайти на rutor.org? Какой новый адрес рутор? Какое зеркало рутор? Не работает rutor.org и зеркала? Тогда наш торрент специально для вас. Rutor.in неофициальное зеркало rutor. В случае если у Вас заблокирован rutor или вдруг Вы не можете на него зайти, то Вы без труда сможете скачать бесплатно и без рекламы последние новинки кино, игр, сериалов и прочего у нас, на Rutor.in. Не нужно использовать прокси, чтобы зайти на рутор, достаточно воспользоваться нашим ресурсом. Все новые фильмы, игры, сериалы, книги и музыка за 2013 и 2014 годы через торрент бесплатно. Скачивайте фильмы в хорошем качестве, игры для пк, xbox, playstation без регистрации. У нас вы найдете новые Зарубежные сериалы и Русские сериалы 2013, 2014, 2015 годов. Оставайтесь с нами, качайте любимые фильмы, игры, сериалы, книги и музыку.