img image001 image001 image001 image001 image001 image001 image001 image001 image001 image001 image001 image001 image001 image001 image001

Planets Sun Sun Sun
Статистика раздачи
Автор: PriZraK | Размер: 49.98 ГБ | Добавлен: 15 фев 2014
Раздают: 0    Качают: 5
Скачать торрент
Скачать торрент
Описание торрента

СообщениеДобавлено: 15 фев 2014 


Год выпуска: 2012
Страна: Бразилия
Производство: Central Globo de Produção & Rede Globo de Televisão
Жанр: Драма, комедия, детектив
Серии (количество): 031-060 (160)
Продолжительность: 00:45:00 / серия
Перевод: Профессиональный многоголосый закадровый (Первый канал)
Субтитры: Отсутствуют

Режиссёр: Рикардо Ваддингтон (Ricardo Waddington), Андре Камара, Густаво Фернандес, Паоло Сильвестрини, Амора Маутнер.

В ролях: Дебора Фалабелла, Адриана Эстевес, Мурило Бенисио, Кайя Реймонд, Элоиза Периссе, Марселлу Новаес, Вера Ольц, Жозе де Абреу, Элиане Жардини, Маркос Карузо, Летисия Иснард, Изис Вальверде, Бьянка Компрату, Отавио Аугусто, Паула Бурламаки, Айлтон Граса, Алешандре Боржес, Каролина Ферраз, Дебора Блок, Камила Моргаду, Тьяго Мартинс и другие.

Описание: Женезио одинокий вдовец и отец маленькой девочки по имени Рита, женится на простой девушке Карминии, считая, что она как никто лучше сможет заменить мать девочке. Сама же скрывает за своей приятной улыбкой и добрыми намерениями свою подлую сущность коварной особы. Она при поддержке Макса убирает со своего пути мужа, и после его трагической смерти понимает что единственным наследником старика осталась Рита. Карминия выгоняет свою падчерицу на свалку.

Сэмпл: http://multi-up.com/872792
Ссылка на предыдущую раздачу

Доп. информация: Релиз -


Рип чистый. Без посторонних надписей. Выкладывается как есть.

Качество: HDTV 1080i
Контейнер: TS
Видео кодек: AVC
Аудио кодек: MP2
Видео: 1920x1080 (16:9) 25.000 fps 8 419 Kbps, 0.162 bit/pixel
Аудио: MPEG Audio 48000Hz stereo 192 Кбит/сек





Код:
General
ID                    : 1 (0x1)
Complete name              : D:ВыкладкаПроспект Бразилии ( Avenida Brasil) - 031-060 cерии (2012, Драма, Детектив, Комедия, HDTV 1080i) (MYDIMKA)31 серия.ts
Format                  : MPEG-TS
File size                : 2.85 GiB
Duration                 : 45mn 0s
Overall bit rate mode          : Variable
Overall bit rate             : 9 061 Kbps

Video
ID                    : 69 (0x45)
Menu ID                 : 1 (0x1)
Format                  : AVC
Format/Info               : Advanced Video Codec
Format profile              : High@L4.0
Format settings, CABAC          : Yes
Format settings, ReFrames        : 3 frames
Codec ID                 : 27
Duration                 : 45mn 0s
Bit rate                 : 8 419 Kbps
Width                  : 1 920 pixels
Height                  : 1 080 pixels
Display aspect ratio           : 16:9
Frame rate                : 25.000 fps
Standard                 : Component
Color space               : YUV
Chroma subsampling            : 4:2:0
Bit depth                : 8 bits
Scan type                : Interlaced
Scan order                : Top Field First
Bits/(Pixel*Frame)            : 0.162
Stream size               : 2.65 GiB (93%)
Color primaries             : BT.709
Transfer characteristics         : BT.709
Matrix coefficients           : BT.709

Audio
ID                    : 68 (0x44)
Menu ID                 : 1 (0x1)
Format                  : MPEG Audio
Format version              : Version 1
Format profile              : Layer 2
Codec ID                 : 3
Duration                 : 45mn 0s
Bit rate mode              : Constant
Bit rate                 : 192 Kbps
Channel(s)                : 2 channels
Sampling rate              : 48.0 KHz
Compression mode             : Lossy
Stream size               : 61.8 MiB (2%)
Language                 : English




   Похожие торренты   Торрент   Размер 
В этой теме нет новых непрочитанных сообщений. Проспект Бразилии / Avenida Brasil [158-173 из 173] (2012) HDTVRip | L2

99 | 73

10.57 ГБ

В этой теме нет новых непрочитанных сообщений. Проспект Бразилии / Avenida Brasil [01-40 из 160] (2012) SATRip | P

53 | 43

22.15 ГБ

В этой теме нет новых непрочитанных сообщений. Проспект Бразилии / Avenida Brasil [51-150 из 160] (2012) HDTVRip | L2

25 | 164

65.41 ГБ

В этой теме нет новых непрочитанных сообщений. Проспект Бразилии / Avenida Brasil [51-56 из 160] (2012) HDTVRip | Alternative Production

9 | 2

3.51 ГБ

В этой теме нет новых непрочитанных сообщений. Проспект Бразилии / Avenida Brasil [41-50 из 160] (2012) SATRip | Первый канал

36 | 9

5.59 ГБ

В этой теме нет новых непрочитанных сообщений. Вышка [01х01-06] (2013) HDTV 1080i от Mydimka

1 | 2

52.93 ГБ

В этой теме нет новых непрочитанных сообщений. Формула 1. 2012. Этап 20 из 20. Гран-При Бразилии. Гонка (2012) HDTV 1080i

0 | 1

14.27 ГБ




Вы не можете начинать темы
Вы не можете отвечать на сообщения
Вы не можете редактировать свои сообщения
Вы не можете удалять свои сообщения
Вы не можете добавлять вложения

Перейти:  
Для Мосгорсуда, Роскомнадзора и рекламодателей: mosgorsud-torrent[собачка]yandex.ru
 Вход
ppkBB3cker v.2 © 2008-2014 @ PPK
[ Time : 0.048s | 14 Queries | GZIP : On ]

Торрент трекер RUTOR.IN, Не можете зайти на rutor.org? Какой новый адрес рутор? Какое зеркало рутор? Не работает rutor.org и зеркала? Тогда наш торрент специально для вас. Rutor.in неофициальное зеркало rutor. В случае если у Вас заблокирован rutor или вдруг Вы не можете на него зайти, то Вы без труда сможете скачать бесплатно и без рекламы последние новинки кино, игр, сериалов и прочего у нас, на Rutor.in. Не нужно использовать прокси, чтобы зайти на рутор, достаточно воспользоваться нашим ресурсом. Все новые фильмы, игры, сериалы, книги и музыка за 2013 и 2014 годы через торрент бесплатно. Скачивайте фильмы в хорошем качестве, игры для пк, xbox, playstation без регистрации. У нас вы найдете новые Зарубежные сериалы и Русские сериалы 2013, 2014, 2015 годов. Оставайтесь с нами, качайте любимые фильмы, игры, сериалы, книги и музыку.