img image001 image001 image001 image001 image001 image001 image001 image001 image001 image001 image001 image001 image001 image001 image001

Planets Sun Sun Sun
Статистика раздачи
Автор: PriZraK | Размер: 7.67 ГБ | Добавлен: 15 фев 2014
Раздают: 8    Качают: 25
Скачать торрент
Скачать торрент
Описание торрента

СообщениеДобавлено: 15 фев 2014 



Информация о фильме
Название: Байки из склепа
Оригинальное название: Tales from the Crypt
Год выхода: 1989-1990
Жанр: США, Home Box Office (HBO)
Режиссер: Роберт Земекис / Robert Zemeckis
В ролях: Уильям Сэдлер, Маршалл Белл, Джо Пантольяно, Лиа Томпсон, Бретт Каллен, Аманда Пламмер, Стивен Шеллен, М. Эммет Уолш, Деми Мур, Мигель Феррер, Игги Поп, Патриция Аркетт, Грейс Забриски

О фильме:
«Байки из склепа» — телесериал, созданный по мотивам комиксов Уильяма М. Гейнса, составленный из более чем полусотни сюжетов, представляющих собой короткие страшно юморные истории, рассказанные от лица симпатичного обитателя склепа, сопровождаемые его едкими, зловонными комментариями. Помните — смех продлевает жизнь, а постоянный страх сделает вас бессмертным.


Страна: США
Студия: Home Box Office (HBO)
Продолжительность: 24 x ~ 00:26:00
Перевод: Авторский (одноголосый, закадровый) Антон Карповский

Файл
Кодек: XVid
Качество: DVDRip
Видео: 704x528 (1.33:1), 23.976 fps, XviD build 64, 1361 kbps avg, 0.15 bit/pixel
Звук: 48 kHz, AC3 Dolby Digital, 2/0 (L,R) Surround Encoded ch, 192 kbps - Карповский
Субтитры: Нет

Media Info
General
Complete name : G:DownloadsБайки от Карповского (1-й сезон)�1.04. Байки из склепа (Карповский).avi
Format : AVI
Format/Info : Audio Video Interleave
File size : 305 MiB
Duration : 27mn 17s
Overall bit rate : 1 563 Kbps
Writing application : VirtualDubMod 1.5.10.2 (build 2540/release)
Writing library : VirtualDubMod build 2540/release

Video
ID : 0
Format : MPEG-4 Visual
Format profile : Advanced Simple@L5
Format settings, BVOP : 2
Format settings, QPel : No
Format settings, GMC : No warppoints
Format settings, Matrix : Default (MPEG)
Codec ID : XVID
Codec ID/Hint : XviD
Duration : 27mn 17s
Bit rate : 1 361 Kbps
Width : 704 pixels
Height : 528 pixels
Display aspect ratio : 4:3
Frame rate : 23.976 fps
Color space : YUV
Chroma subsampling : 4:2:0
Bit depth : 8 bits
Scan type : Progressive
Compression mode : Lossy
Bits/(Pixel*Frame) : 0.153
Stream size : 266 MiB (87%)
Writing library : XviD 64

Audio
ID : 1
Format : AC-3
Format/Info : Audio Coding 3
Format profile : Dolby Digital
Mode extension : CM (complete main)
Format settings, Endianness : Big
Codec ID : 2000
Duration : 27mn 17s
Bit rate mode : Constant
Bit rate : 192 Kbps
Channel(s) : 2 channels
Channel positions : Front: L R
Sampling rate : 48.0 KHz
Bit depth : 16 bits
Compression mode : Lossy
Delay relative to video : 29ms
Stream size : 37.5 MiB (12%)
Alignment : Split accross interleaves
Interleave, duration : 42 ms (1.00 video frame)
Interleave, preload duration : 500 ms




Релиз: UnSlayeR



   Похожие торренты   Торрент   Размер 
В этой теме нет новых непрочитанных сообщений. Байки из склепа / Tales From The Crypt [S01] (1989) DVDRip от Brazzass

129 | 17

3.06 ГБ

В этой теме нет новых непрочитанных сообщений. Байки из Склепа [S01-S04] / Tales From The Crypt (1989 - 1992) DVDRip

0 | 1

14.63 ГБ

В этой теме нет новых непрочитанных сообщений. Байки из склепа / Tales From The Crypt [S02] (1990) DVDRip от Brazzass

44 | 9

8.87 ГБ

В этой теме нет новых непрочитанных сообщений. Байки из склепа / Tales from the Crypt [S01-07] (1989-1996) DVDRip/VHSRip

344 | 111

22.5 ГБ

В этой теме нет новых непрочитанных сообщений. Байки из склепа / Tales from the crypt [01x01-06 из 06] (1989) DVDRip | L1 от Youtracker

1 | 5

1.18 ГБ

В этой теме нет новых непрочитанных сообщений. Байки из склепа. Антология / Tales From The Crypt. Anthology [S01-07] (1989-2002) DVDRip | P, P2, A

148 | 236

61.42 ГБ

В этой теме нет новых непрочитанных сообщений. Байки из склепа / Tales from the Crypt (1972) DVDRip

11 | 26

1.41 ГБ




Вы не можете начинать темы
Вы не можете отвечать на сообщения
Вы не можете редактировать свои сообщения
Вы не можете удалять свои сообщения
Вы не можете добавлять вложения

Перейти:  
Для Мосгорсуда, Роскомнадзора и рекламодателей: mosgorsud-torrent[собачка]yandex.ru
 Вход
ppkBB3cker v.2 © 2008-2014 @ PPK
[ Time : 0.059s | 18 Queries | GZIP : Off ]

Торрент трекер RUTOR.IN, Не можете зайти на rutor.org? Какой новый адрес рутор? Какое зеркало рутор? Не работает rutor.org и зеркала? Тогда наш торрент специально для вас. Rutor.in неофициальное зеркало rutor. В случае если у Вас заблокирован rutor или вдруг Вы не можете на него зайти, то Вы без труда сможете скачать бесплатно и без рекламы последние новинки кино, игр, сериалов и прочего у нас, на Rutor.in. Не нужно использовать прокси, чтобы зайти на рутор, достаточно воспользоваться нашим ресурсом. Все новые фильмы, игры, сериалы, книги и музыка за 2013 и 2014 годы через торрент бесплатно. Скачивайте фильмы в хорошем качестве, игры для пк, xbox, playstation без регистрации. У нас вы найдете новые Зарубежные сериалы и Русские сериалы 2013, 2014, 2015 годов. Оставайтесь с нами, качайте любимые фильмы, игры, сериалы, книги и музыку.