img image001 image001 image001 image001 image001 image001 image001 image001 image001 image001 image001 image001 image001 image001 image001

Planets Sun Sun Sun
Статистика раздачи
Автор: PriZraK | Размер: 2.73 ГБ | Добавлен: 15 фев 2014
Раздают: 196    Качают: 7
Скачать торрент
Скачать торрент
Описание торрента

СообщениеДобавлено: 15 фев 2014 




Информация о фильме
Оригинальное название: Право на любовь
Год выпуска: 2013
Жанр: Мелодрама
Режиссер: Игорь Мужжухин
В ролях: Татьяна Черкасова, Александр Волков, Анна Ардова

О фильме: Лена - молодая, красивая бизнес-леди, главный редактор модного журнала. Десять лет назад любимый мужчина, художник Арсений, бросил ее ради автогонщицы Ники. И с тех пор Лена, стиснув зубы, строит карьеру, мучает стервозным характером подчиненных и... надеется на то, что Арсений к ней вернется. Подруга тщетно уговаривает Лену обратить внимание на других мужчин, ведь ее ожидание явно затянулось: в жизни Арсения женщины меняют друг друга, а Лена остается другом. Когда кажется, что выхода уже нет, в жизни Лены происходит странный поворот: она узнает, что разлучница Ника погибла.

Выпущено: Россия, кинокомпания "Русское"
Продолжительность: 2 х ~ 01:30:00
Язык: Русский

Семпл

Файл
Видео кодек: XviD
Качество: HDTVRip
Видео: 720x400 (1.80:1), 25 fps, XviD build 50 ~1977 kbps avg, 0.26 bit/pixel
Аудио: 48 kHz, AC3 Dolby Digital, 2/0 (L,R) ch, ~192.00 kbps avg

General
Complete name : V:ftp4VideosPravo.na.lyubov.2013..XviD.HDTVRip.Files-xPravo.na.lyubov.02.seriya.2013..XviD.HDTVRip.Files-x.avi
Format : AVI
Format/Info : Audio Video Interleave
File size : 1.36 GiB
Duration : 1h 29mn
Overall bit rate : 2 179 Kbps
Writing application : VirtualDubMod 1.5.10.3 | www.virtualdub-fr.org || (build 2550/release)
Writing library : VirtualDubMod build 2550/release

Video
ID : 0
Format : MPEG-4 Visual
Format profile : Advanced Simple@L5
Format settings, BVOP : 1
Format settings, QPel : No
Format settings, GMC : No warppoints
Format settings, Matrix : Default (H.263)
Codec ID : XVID
Codec ID/Hint : XviD
Duration : 1h 29mn
Bit rate : 1 977 Kbps
Width : 720 pixels
Height : 400 pixels
Display aspect ratio : 16:9
Frame rate : 25.000 fps
Color space : YUV
Chroma subsampling : 4:2:0
Bit depth : 8 bits
Scan type : Progressive
Compression mode : Lossy
Bits/(Pixel*Frame) : 0.275
Stream size : 1.24 GiB (91%)
Writing library : XviD 1.2.1 (UTC 2008-12-04)

Audio
ID : 1
Format : AC-3
Format/Info : Audio Coding 3
Mode extension : CM (complete main)
Format settings, Endianness : Big
Codec ID : 2000
Duration : 1h 29mn
Bit rate mode : Constant
Bit rate : 192 Kbps
Channel(s) : 2 channels
Channel positions : Front: L R
Sampling rate : 48.0 KHz
Bit depth : 16 bits
Compression mode : Lossy
Stream size : 123 MiB (9%)
Alignment : Split accross interleaves
Interleave, duration : 40 ms (1.00 video frame)
Interleave, preload duration : 500 ms



Релиз группа



   Похожие торренты   Торрент   Размер 
В этой теме нет новых непрочитанных сообщений. Право на любовь [01-04 из 04] (2013) SATRip

98 | 8

2.01 ГБ

В этой теме нет новых непрочитанных сообщений. Право на любовь [01-04 из 04] (2013) WEB-DLRip-AVC от Files-x

156 | 20

2.26 ГБ

В этой теме нет новых непрочитанных сообщений. Право на любовь [01-02 из 02] (2013) HDTV 1080i

1 | 2

8.57 ГБ

В этой теме нет новых непрочитанных сообщений. Право голоса. Право на смерть [3 канал] [26.06] (2013) WEBRip

1 | 3

540.17 МБ

В этой теме нет новых непрочитанных сообщений. Право голоса. Право на роды [18.12] (2013) WEBRip

0 | 1

699.32 МБ

В этой теме нет новых непрочитанных сообщений. Право голоса. Право на материнство [05.12] (2013) WEBRip

0 | 2

696.94 МБ

В этой теме нет новых непрочитанных сообщений. Любовь за любовь [01-04 из 04] (2013) HDTVRip 720p

1 | 2

7.17 ГБ




Вы не можете начинать темы
Вы не можете отвечать на сообщения
Вы не можете редактировать свои сообщения
Вы не можете удалять свои сообщения
Вы не можете добавлять вложения

Перейти:  
Для Мосгорсуда, Роскомнадзора и рекламодателей: mosgorsud-torrent[собачка]yandex.ru
 Вход
ppkBB3cker v.2 © 2008-2014 @ PPK
[ Time : 0.046s | 14 Queries | GZIP : On ]

Торрент трекер RUTOR.IN, Не можете зайти на rutor.org? Какой новый адрес рутор? Какое зеркало рутор? Не работает rutor.org и зеркала? Тогда наш торрент специально для вас. Rutor.in неофициальное зеркало rutor. В случае если у Вас заблокирован rutor или вдруг Вы не можете на него зайти, то Вы без труда сможете скачать бесплатно и без рекламы последние новинки кино, игр, сериалов и прочего у нас, на Rutor.in. Не нужно использовать прокси, чтобы зайти на рутор, достаточно воспользоваться нашим ресурсом. Все новые фильмы, игры, сериалы, книги и музыка за 2013 и 2014 годы через торрент бесплатно. Скачивайте фильмы в хорошем качестве, игры для пк, xbox, playstation без регистрации. У нас вы найдете новые Зарубежные сериалы и Русские сериалы 2013, 2014, 2015 годов. Оставайтесь с нами, качайте любимые фильмы, игры, сериалы, книги и музыку.