img image001 image001 image001 image001 image001 image001 image001 image001 image001 image001 image001 image001 image001 image001 image001

Planets Sun Sun Sun
Статистика раздачи
Автор: PriZraK | Размер: 4.3 ГБ | Добавлен: 15 фев 2014
Раздают: 17    Качают: 4
Скачать торрент
Скачать торрент
Описание торрента

СообщениеДобавлено: 15 фев 2014 


Год выпуска: 2011
Страна: Россия
Производство: Студия Арт-Базар

Жанр: военный, исторический
Продолжительность: 05:49:38 (00:44:19 + 00:44:15 + 00:44:23 + 00:44:00 + 00:43:59 + 00:44:09 + 00:44:30 + 00:40:03)
Субтитры: нет.

Режиссёр: Елена Николаева

В ролях:
Михаил Пореченков, Сергей Гармаш, Валерий Баринов, Юлия Снигирь, Даниил Спиваковский, Мартиньш Вилсонс, Яна Сексте, Сергей Астахов, Мария Порошина, Галина Польских, Артём Михалков, Алексей Огурцов, Полина Сидихина, Евгений Березовский, Вениамин Смехов, Сергей Агафонов (II), Петар Зекавица, Антон Никушин, Виктор Сарайкин...

Описание:
После Второй мировой войны немецкий город Нюрнберг оказался в центре политических, военных и государственных интриг могущественнейших держав. Здесь решались послевоенные судьбы мира. Здесь же встретились и обыкновенные люди — для того, чтобы найти свою судьбу в это время великих исторических событий и перемен.
Борьба амбиций, интересов, борьба за сферы влияния — вот фон, на котором разворачивается подготовка к Нюрнбергскому процессу. Война закончена, война продолжается — вот мотив, который объединяет героев, характеризует время, и выступает движущей силой цивилизации.
На фоне грандиозных политических катаклизмов послевоенного времени возникает сюжет о людях, которые существовали внутри этого времени — жили, выживали, любили, ненавидели и мстили. Среди них — советский разведчик майор Денис Ребров, дочь русских эмигрантов княжна Ирина Куракина, влиятельный американский журналист Алекс Крафт, немецкие нацисты Олаф, Гюнтер и Гизела...





Исходник: 2xDVD9 R5
Тип релиза: DVDRip-AVC
Контейнер: MKV

Видео: 720x428@768x428, (16x9), 25.0 fps, H264 ~ 1309 kbps avg, 0.170 bit/pixel
Аудио: 48 kHz, AC3, 6 ch, 448 kbps
Общее
Полное имя : Kontrigra.2011.O.DVDRip-AVC1.mkv
Формат : Matroska
Версия формата : Version 2
Размер файла : 558 Мбайт
Продолжительность : 44 м.
Общий поток : 1759 Кбит/сек
Дата кодирования : UTC 2011-12-07 09:50:19
Программа кодирования : mkvmerge v4.1.1 ('Bouncin' Back') сборка от Jul 3 2010 22:54:08
Библиотека кодирования : libebml v1.0.0 + libmatroska v1.0.0

Видео
Идентификатор : 1
Формат : AVC
Формат/Информация : Advanced Video Codec
Профиль формата : High@L4.1
Параметр CABAC формата : Да
Параметр ReFrames формата : 11 кадров
Идентификатор кодека : V_MPEG4/ISO/AVC
Продолжительность : 44 м.
Битрейт : 1309 Кбит/сек
Ширина : 720 пикселей
Высота : 428 пикселей
Соотношение сторон : 16:9
Частота кадров : 25,000 кадров/сек
Цветовое пространство : YUV
Субдискретизация насыщенности : 4:2:0
Битовая глубина : 8 бит
Тип развёртки : Прогрессивная
Бит/(Пиксели*Кадры) : 0.170
Размер потока : 405 Мбайт (73%)
Библиотека кодирования : x264 core 119 r2106 07efeb4
Настройки программы : cabac=1 / ref=11 / deblock=1:-2:-1 / analyse=0x3:0x113 / me=umh / subme=9 / psy=1 / psy_rd=1.00:0.10 / mixed_ref=1 / me_range=32 / chroma_me=1 / trellis=2 / 8x8dct=1 / cqm=0 / deadzone=21,11 / fast_pskip=1 / chroma_qp_offset=-3 / threads=9 / sliced_threads=0 / nr=0 / decimate=1 / interlaced=0 / bluray_compat=0 / constrained_intra=0 / bframes=11 / b_pyramid=2 / b_adapt=2 / b_bias=0 / direct=3 / weightb=1 / open_gop=0 / weightp=0 / keyint=250 / keyint_min=25 / scenecut=40 / intra_refresh=0 / rc_lookahead=80 / rc=2pass / mbtree=1 / bitrate=1309 / ratetol=1.0 / qcomp=0.60 / qpmin=0 / qpmax=69 / qpstep=4 / cplxblur=20.0 / qblur=0.5 / ip_ratio=1.40 / aq=2:0.90
Язык : Russian
Default : Да
Forced : Нет

Аудио
Идентификатор : 2
Формат : AC-3
Формат/Информация : Audio Coding 3
Расширение режима : CM (complete main)
Идентификатор кодека : A_AC3
Продолжительность : 44 м.
Вид битрейта : Постоянный
Битрейт : 448 Кбит/сек
Каналы : 6 каналов
Расположение каналов : Front: L C R, Side: L R, LFE
Частота : 48,0 КГц
Битовая глубина : 16 бит
Метод сжатия : С потерями
Размер потока : 142 Мбайт (25%)
Язык : Russian
Default : Да
Forced : Нет





   Похожие торренты   Торрент   Размер 
В этой теме нет новых непрочитанных сообщений. Контригра [01-08 из 08] (2011) DVDRip от КинозалSAT

172 | 29

4.69 ГБ

В этой теме нет новых непрочитанных сообщений. Контригра [01-08 из 08] (2011) DVDRip от Generalfilm | КПК

68 | 12

1.37 ГБ

В этой теме нет новых непрочитанных сообщений. Контригра [01-08 из 08] (2011) DVD9

3 | 7

7.36 ГБ

В этой теме нет новых непрочитанных сообщений. Контригра [01-08 из 08] (2011) DVВRip-AVC

26 | 18

6.82 ГБ

В этой теме нет новых непрочитанных сообщений. Каменская [S01-06] (1999-2011) DVDRip DVDRip-AVC от New-Team

12 | 30

45.02 ГБ

В этой теме нет новых непрочитанных сообщений. Каменская [S01-06] (1999-2011) DVDRip DVDRip-AVC от New-Team

31 | 93

44.98 ГБ

В этой теме нет новых непрочитанных сообщений. Каменская [S01-06] (1999-2011) DVDRip от New-Team

10 | 58

44.89 ГБ




Вы не можете начинать темы
Вы не можете отвечать на сообщения
Вы не можете редактировать свои сообщения
Вы не можете удалять свои сообщения
Вы не можете добавлять вложения

Перейти:  
Для Мосгорсуда, Роскомнадзора и рекламодателей: mosgorsud-torrent[собачка]yandex.ru
 Вход
ppkBB3cker v.2 © 2008-2014 @ PPK
[ Time : 0.042s | 15 Queries | GZIP : Off ]

cron