img image001 image001 image001 image001 image001 image001 image001 image001 image001 image001 image001 image001 image001 image001 image001

Planets Sun Sun Sun
Статистика раздачи
Автор: PriZraK | Размер: 8.91 ГБ | Добавлен: 15 фев 2014
Раздают: 514    Качают: 157
Скачать торрент
Скачать торрент
Описание торрента

СообщениеДобавлено: 15 фев 2014 


Клан Сопрано / The Sopranos

Год выпуска: 2000
Страна: США
Жанр: криминальная драма
Продолжительность: ~ 00:50:00
Перевод: Авторский (одноголосый закадровый) Дмитрий Пучков (Goblin)
Субтитры: нет
Оригинальная аудиодорожка: нет

Режиссер: Тимоти Ван Паттен / Timothy Van Patten, Джон Паттерсон / John Patterson

В ролях:
Джеймс Гандольфини, Эди Фалько, Джэми-Линн Сиглер, Майкл Империоли, Лоррейн Бракко, Тони Сирико, Роберт Айлер, Стив Ван Зандт, Доминик Кьянезе, Аида Туртурро

Описание: Повседневная жизнь современного Крестного отца: его мысли — стремительны, действия — решительны, а юмор — черен. Мафиозный босс Северного Джерси Тони Сопрано успешно справляется с проблемами «Семьи».
Но вот собственная семья немного подкачала: дети от рук отбились, брак — под угрозой, мамаша — пилит. Он надеется на помощь психиатра, но как тому рассказать обо всех своих проблемах, если связан «Омертой» — обетом молчания, нарушать который нельзя под страхом смерти?


Качество: WEB-DLRip
Формат: AVI
Видео кодек: XviD
Аудио кодек: AC3
Видео: 656x368 (1.78:1), 23.976 fps, XviD build 50 ~1631 kbps avg, 0.28 bit/pixel
Аудио: 48 kHz, AC3 Dolby Digital, 2/0 (L,R) ch, ~192 kbps

Раздача от:


Код:
D:Мои рипыThe.Sopranos.S02.WEB-DLRip.[YTN]_by_dexter_lexThe.Sopranos.S02E01.WEB-DLRip.[YTN]_by_dexter_lex.avi
  General
    Complete name : D:Мои рипыThe.Sopranos.S02.WEB-DLRip.[YTN]_by_dexter_lexThe.Sopranos.S02E01.WEB-DLRip.[YTN]_by_dexter_lex.avi
    Format : AVI
    Format/Info : Audio Video Interleave
    File size : 648 MiB
    Duration : 49mn 23s
    Overall bit rate : 1 833 Kbps
    Writing application : VirtualDubMod 1.5.10.3 | www.virtualdub-fr.org || (build 2550/release)
    Writing library : VirtualDubMod build 2550/release
  Video #0
    ID : 0
    Format : MPEG-4 Visual
    Format profile : Advanced Simple@L5
    Format settings, BVOP : 1
    Format settings, QPel : No
    Format settings, GMC : No warppoints
    Format settings, Matrix : Custom
    Codec ID : XVID
    Codec ID/Hint : XviD
    Duration : 49mn 23s
    Bit rate : 1 632 Kbps
    Width : 656 pixels
    Height : 368 pixels
    Display aspect ratio : 16:9
    Frame rate : 23.976 fps
    Color space : YUV
    Chroma subsampling : 4:2:0
    Bit depth : 8 bits
    Scan type : Progressive
    Compression mode : Lossy
    Bits/(Pixel*Frame) : 0.282
    Stream size : 576 MiB (89%)
    Writing library : XviD 1.2.1 (UTC 2008-12-04)
  Audio #1
    ID : 1
    Format : AC-3
    Format/Info : Audio Coding 3
    Mode extension : CM (complete main)
    Codec ID : 2000
    Duration : 49mn 23s
    Bit rate mode : Constant
    Bit rate : 192 Kbps
    Channel(s) : 2 channels
    Channel positions : Front: L R
    Sampling rate : 48.0 KHz
    Bit depth : 16 bits
    Compression mode : Lossy
    Stream size : 67.8 MiB (10%)
    Alignment : Split accross interleaves
    Interleave, duration : 42 ms (1.00 video frame)
    Interleave, preload duration : 500 ms


http://multi-up.com/900120



   Похожие торренты   Торрент   Размер 
В этой теме нет новых непрочитанных сообщений. Клан Сопрано / The Sopranos [S05] (2004) WEB-DLRip от Scarabey | Гоблин

235 | 75

9.58 ГБ

В этой теме нет новых непрочитанных сообщений. Клан Сопрано / The Sopranos [S04] (2003) WEB-DLRip от Scarabey | Гоблин

362 | 75

9.48 ГБ

В этой теме нет новых непрочитанных сообщений. Клан Сопрано / The Sopranos [S03] (2001) WEB-DLRip от Scarabey | Гоблин

275 | 94

9.54 ГБ

В этой теме нет новых непрочитанных сообщений. Клан Сопрано / The Sopranos [S02] (2000) WEB-DLRip от Scarabey

164 | 43

9.51 ГБ

В этой теме нет новых непрочитанных сообщений. Клан Сопрано / The Sopranos [S02] (2000) BDRip от HQ-ViDEO

3 | 9

11.87 ГБ

В этой теме нет новых непрочитанных сообщений. Клан Сопрано / The Sopranos [S02] (2000) BDRip от HQ-ViDEO

52 | 45

11.87 ГБ

В этой теме нет новых непрочитанных сообщений. Клан Сопрано / The Sopranos [S02] (2000) BDRip 720p | P, A

3 | 2

48.56 ГБ




Вы не можете начинать темы
Вы не можете отвечать на сообщения
Вы не можете редактировать свои сообщения
Вы не можете удалять свои сообщения
Вы не можете добавлять вложения

Перейти:  
Для Мосгорсуда, Роскомнадзора и рекламодателей: mosgorsud-torrent[собачка]yandex.ru
 Вход
ppkBB3cker v.2 © 2008-2014 @ PPK
[ Time : 0.046s | 16 Queries | GZIP : Off ]

Торрент трекер RUTOR.IN, Не можете зайти на rutor.org? Какой новый адрес рутор? Какое зеркало рутор? Не работает rutor.org и зеркала? Тогда наш торрент специально для вас. Rutor.in неофициальное зеркало rutor. В случае если у Вас заблокирован rutor или вдруг Вы не можете на него зайти, то Вы без труда сможете скачать бесплатно и без рекламы последние новинки кино, игр, сериалов и прочего у нас, на Rutor.in. Не нужно использовать прокси, чтобы зайти на рутор, достаточно воспользоваться нашим ресурсом. Все новые фильмы, игры, сериалы, книги и музыка за 2013 и 2014 годы через торрент бесплатно. Скачивайте фильмы в хорошем качестве, игры для пк, xbox, playstation без регистрации. У нас вы найдете новые Зарубежные сериалы и Русские сериалы 2013, 2014, 2015 годов. Оставайтесь с нами, качайте любимые фильмы, игры, сериалы, книги и музыку.
cron