img image001 image001 image001 image001 image001 image001 image001 image001 image001 image001 image001 image001 image001 image001 image001

Planets Sun Sun Sun
Статистика раздачи
Автор: PriZraK | Размер: 3.51 ГБ | Добавлен: 15 фев 2014
Раздают: 9    Качают: 2
Скачать торрент
Скачать торрент
Описание торрента

СообщениеДобавлено: 15 фев 2014 




Проспект Бразилии / Avenida Brasil




Год выпуска: 2012
Страна: Бразилия
Жанр: Драма, комедия, детектив
Продолжительность: 00:45:00


Перевод:Любительский (двухголосый закадровый) Alternative Production

Русские субтитры: Нет


Режиссёр: Рикардо Ваддингтон, Андре Камара, Густаво Фернандес, Паоло Сильвестрини, Амора Маутнер.

В ролях: Дебора Фалабелла, Адриана Эстевес, Мурило Бенисио, Кайя Реймонд, Элоиза Периссе, Марселлу Новаес, Вера Ольц, Жозе де Абреу, Элиане Жардини, Маркос Карузо, Летисия Иснард, Изис Вальверде, Бьянка Компрату, Отавио Аугусто, Паула Бурламаки, Айлтон Граса, Алешандре Боржес, Каролина Ферраз, Дебора Блок, Камила Моргаду, Тьяго Мартинс и другие.


Описание: Женезио одинокий вдовец и отец маленькой девочки по имени Рита, женится на простой девушке Карминии, считая, что она как никто лучше сможет заменить мать девочке. Сама же скрывает за своей приятной улыбкой и добрыми намерениями свою подлую сущность коварной особы. Она при поддержке Макса убирает со своего пути мужа, и после его трагической смерти понимает что единственным наследником старика осталась Рита. Карминия выгоняет свою падчерицу на свалку.





Все раздачи сериала

Качество: HDTVRip
Формат: AVI
Видео кодек: XviD
Аудио кодек: MP3
Видео: 720x400 (1.80:1), 29.970 fps, XviD MPEG-4 ~1693 kbps avg, 0.20 bit/pixel
Аудио: 48 kHz, MPEG Layer 3, 2 ch, ~192.00 kbps avg

Релиз от:
Код:
General
Complete name                            : D:ФільмиНе удалятыРАЗДАЧАПроспект Бразилии [Alternative Production]Проспект Бразилии 51 серия [Alternative Production].avi
Формат                           : AVI
Формат/Информация                : Audio Video Interleave
Размер файла                     : 601 Мбайт
Продолжительность                : 44 м.
Общий поток                      : 1897 Кбит/сек
Библиотека кодирования           : VirtualDub build 32842/release

Видео
Идентификатор                    : 0
Формат                           : MPEG-4 Visual
Профиль формата                  : Advanced Simple@L5
Параметр BVOP формата            : 2
Параметр QPel формата            : Нет
Параметр GMC формата             : Без точки перехода
Параметр матрицы формата         : Default (H.263)
Режим смешивания                 : Сжатый битовый поток
Идентификатор кодека             : XVID
Идентификатор кодека/Подсказка   : XviD
Продолжительность                : 44 м.
Битрейт                          : 1693 Кбит/сек
Ширина                           : 720 пикс.
Высота                           : 400 пикс.
Соотношение сторон               : 16:9
Частота кадров                   : 29,970 кадр/сек
Цветовое пространство            : YUV
Подвыборка цветности             : 4:2:0
Битовая глубина                  : 8 бит
Тип развёртки                    : Прогрессивная
Метод сжатия                     : С потерями
Бит/(Пиксели*Кадры)              : 0.196
Размер потока                    : 536 Мбайт (89%)
Библиотека кодирования           : XviD 64

Аудио
Идентификатор                    : 1
Формат                           : MPEG Audio
Версия формата                   : Version 1
Профиль формата                  : Layer 3
Режим                            : Joint stereo
Идентификатор кодека             : 55
Идентификатор кодека/Подсказка   : MP3
Продолжительность                : 44 м.
Вид битрейта                     : Постоянный
Битрейт                          : 192 Кбит/сек
Канал(ы)                         : 2 канала(ов)
Частота                          : 48,0 КГц
Метод сжатия                     : С потерями
Размер потока                    : 60,8 Мбайт (10%)
Выравнивание                     : Разделение по промежуткам
Продолжительность промежутка     : 33  мс. (1,00 видеокадр)
Время предзагрузки промежутка    : 500 ms









54 серия - Неизвестно




   Похожие торренты   Торрент   Размер 
В этой теме нет новых непрочитанных сообщений. Проспект Бразилии / Avenida Brasil [158-173 из 173] (2012) HDTVRip | L2

99 | 73

10.57 ГБ

В этой теме нет новых непрочитанных сообщений. Проспект Бразилии / Avenida Brasil [51-150 из 160] (2012) HDTVRip | L2

25 | 164

65.41 ГБ

В этой теме нет новых непрочитанных сообщений. Проспект Бразилии / Avenida Brasil [01-40 из 160] (2012) SATRip | P

53 | 43

22.15 ГБ

В этой теме нет новых непрочитанных сообщений. Проспект Бразилии / Avenida Brasil [41-50 из 160] (2012) SATRip | Первый канал

36 | 9

5.59 ГБ

В этой теме нет новых непрочитанных сообщений. Проспект Бразилии / Avenida Brasil [31-50 из 160] (2012) HDTV 1080i от Mydimka | P

0 | 5

49.98 ГБ

В этой теме нет новых непрочитанных сообщений. В поиске / Looking [S01] (2014) HDTVRip | Alternative Production

90 | 18

3.75 ГБ

В этой теме нет новых непрочитанных сообщений. К югу от ада / South of Hell [S01] (2015) HDTVRip | Alternative Production

24 | 5

4.02 ГБ




Вы не можете начинать темы
Вы не можете отвечать на сообщения
Вы не можете редактировать свои сообщения
Вы не можете удалять свои сообщения
Вы не можете добавлять вложения

Перейти:  
Для Мосгорсуда, Роскомнадзора и рекламодателей: mosgorsud-torrent[собачка]yandex.ru
 Вход
ppkBB3cker v.2 © 2008-2014 @ PPK
[ Time : 0.037s | 14 Queries | GZIP : Off ]

Торрент трекер RUTOR.IN, Не можете зайти на rutor.org? Какой новый адрес рутор? Какое зеркало рутор? Не работает rutor.org и зеркала? Тогда наш торрент специально для вас. Rutor.in неофициальное зеркало rutor. В случае если у Вас заблокирован rutor или вдруг Вы не можете на него зайти, то Вы без труда сможете скачать бесплатно и без рекламы последние новинки кино, игр, сериалов и прочего у нас, на Rutor.in. Не нужно использовать прокси, чтобы зайти на рутор, достаточно воспользоваться нашим ресурсом. Все новые фильмы, игры, сериалы, книги и музыка за 2013 и 2014 годы через торрент бесплатно. Скачивайте фильмы в хорошем качестве, игры для пк, xbox, playstation без регистрации. У нас вы найдете новые Зарубежные сериалы и Русские сериалы 2013, 2014, 2015 годов. Оставайтесь с нами, качайте любимые фильмы, игры, сериалы, книги и музыку.