img image001 image001 image001 image001 image001 image001 image001 image001 image001 image001 image001 image001 image001 image001 image001

Planets Sun Sun Sun
Статистика раздачи
Автор: PriZraK | Размер: 696.71 МБ | Добавлен: 15 фев 2014
Раздают: 0    Качают: 1
Скачать торрент
Скачать торрент
Описание торрента

СообщениеДобавлено: 15 фев 2014 




Информация о фильме
Название: Пухлики
Оригинальное название: Huge
Год выхода: 2010
Жанр: драма, комедия
Режиссер: Элоди Кин
В ролях: Никки Блонски, Зандер Экхаус, Рэйвен Гудвин, Харви Гайлен, Хейли Хасселхофф, Эшли Холлидэй, АриСтилдман, Джина Торрес, Пол Дули, Зои Джармен

О фильме:
Сериал рассказывает о шести тинейджерах, а события происходят в лагере для похудения. Главная героиня сериала – Уилл (Блонски), забавная и упрямая девушка с избыточным весом, которую отправили в лагерь её состоятельные родители. Эмбер (Хэсселхофф) – немного полноватый подросток, самая худая и сексуальная девушка в лагере, однако считает себя слишком толстой. Сценарий к «Huge» основан на книге Саши Пэйли.


Страна: США
Продолжительность: ~42 минуты серия
Перевод: Любительский (одноголосый, закадровый) - [MostFilm]

Файл
Кодек: XviD / MP3
Качество: HDTVRip
Видео: 720x400 (1.77), 25 fps, ~1195 kbps, 0.16 bit/pixel
Звук: MP3, 48 kHz, 2 ch, 128 kbps
Субтитры: отсутствуют

General
Complete name : E:DownloadHuge_[MostFilm]Huge.s01e09.HDTVRip.MostFilm.avi
Format : AVI
Format/Info : Audio Video Interleave
File size : 352 MiB
Duration : 43mn 13s
Overall bit rate : 1 138 Kbps
Writing application : VirtualDubMod 1.5.10.2 (build 2540/release)
Writing library : VirtualDubMod build 2540/release

Video
ID : 0
Format : MPEG-4 Visual
Format profile : Advanced Simple@L5
Format settings, BVOP : 1
Format settings, QPel : No
Format settings, GMC : No warppoints
Format settings, Matrix : Default (MPEG)
Codec ID : XVID
Codec ID/Hint : XviD
Duration : 43mn 13s
Bit rate : 1 000 Kbps
Width : 720 pixels
Height : 400 pixels
Display aspect ratio : 16:9
Frame rate : 25.000 fps
Color space : YUV
Chroma subsampling : 4:2:0
Bit depth : 8 bits
Scan type : Progressive
Compression mode : Lossy
Bits/(Pixel*Frame) : 0.139
Stream size : 309 MiB (88%)
Writing library : XviD 64

Audio
ID : 1
Format : MPEG Audio
Format version : Version 1
Format profile : Layer 3
Mode : Joint stereo
Mode extension : MS Stereo
Codec ID : 55
Codec ID/Hint : MP3
Duration : 43mn 13s
Bit rate mode : Constant
Bit rate : 128 Kbps
Channel(s) : 2 channels
Sampling rate : 48.0 KHz
Compression mode : Lossy
Stream size : 39.6 MiB (11%)
Alignment : Aligned on interleaves
Interleave, duration : 40 ms (1.00 video frame)
Interleave, preload duration : 504 ms



   Похожие торренты   Торрент   Размер 
В этой теме нет новых непрочитанных сообщений. Пухлики / Huge [01x01-08] (2010) WEB-DLRip | Ivnet Cinema

0 | 1

4.45 ГБ

В этой теме нет новых непрочитанных сообщений. Пухлики / Huge [01x01-07] (2010) WEB-DLRip | Ivnet Cinema

0 | 4

3.89 ГБ

В этой теме нет новых непрочитанных сообщений. Побег [01x09] (2010) SATRip

0 | 2

555.65 МБ

В этой теме нет новых непрочитанных сообщений. 12 обезьян / 12 Monkeys [01x09] (2015) HDTVRip | Kerob

192 | 4

425.24 МБ

В этой теме нет новых непрочитанных сообщений. Укушенная / Bitten [01x09] (2014) HDTVRip | Kerob

583 | 44

403.75 МБ

В этой теме нет новых непрочитанных сообщений. Дон Кихот / Don Quixote [01x09] (2011) HDTVrip 720p

0 | 2

1.14 ГБ

В этой теме нет новых непрочитанных сообщений. Последний человек на Земле / The Last Man on Earth [01x09-10] (2015) HDTVRip | L2

156 | 4

225.31 МБ




Вы не можете начинать темы
Вы не можете отвечать на сообщения
Вы не можете редактировать свои сообщения
Вы не можете удалять свои сообщения
Вы не можете добавлять вложения

Перейти:  
Для Мосгорсуда, Роскомнадзора и рекламодателей: mosgorsud-torrent[собачка]yandex.ru
 Вход
ppkBB3cker v.2 © 2008-2014 @ PPK
[ Time : 0.022s | 15 Queries | GZIP : Off ]

Торрент трекер RUTOR.IN, Не можете зайти на rutor.org? Какой новый адрес рутор? Какое зеркало рутор? Не работает rutor.org и зеркала? Тогда наш торрент специально для вас. Rutor.in неофициальное зеркало rutor. В случае если у Вас заблокирован rutor или вдруг Вы не можете на него зайти, то Вы без труда сможете скачать бесплатно и без рекламы последние новинки кино, игр, сериалов и прочего у нас, на Rutor.in. Не нужно использовать прокси, чтобы зайти на рутор, достаточно воспользоваться нашим ресурсом. Все новые фильмы, игры, сериалы, книги и музыка за 2013 и 2014 годы через торрент бесплатно. Скачивайте фильмы в хорошем качестве, игры для пк, xbox, playstation без регистрации. У нас вы найдете новые Зарубежные сериалы и Русские сериалы 2013, 2014, 2015 годов. Оставайтесь с нами, качайте любимые фильмы, игры, сериалы, книги и музыку.