img image001 image001 image001 image001 image001 image001 image001 image001 image001 image001 image001 image001 image001 image001 image001

Planets Sun Sun Sun
Статистика раздачи
Автор: PriZraK | Размер: 6.78 ГБ | Добавлен: 15 фев 2014
Раздают: 0    Качают: 4
Скачать торрент
Скачать торрент
Описание торрента

СообщениеДобавлено: 15 фев 2014 




Информация о фильме
Название: Столик в углу
Оригинальное название: The Booth at the End
Год выхода: 2012
Жанр: Триллер, драма
Режиссер: Джессика Ландоу, Адам Аркин
В ролях: Ксандер Беркли, Дженнифер Дель Розарио, Дженни Блонг, Мишель Данкер, Мэтт Борен, Сара Кларк, Джек Конли, Дэйтон Калли, Кейт Маберли, Ноэль Фишер, Эбби Миллер, Мэтт Нолан, Дэнни Нуччи, Брендан Чадд Томас, Кигэн Боос, Норма Майклс, Ромина Пениче, Тимоти Омандсон, Джэйк Ричардсон, Энтони Вон

О фильме: Психологический триллер, рассказывающий о загадочном человеке, который сидит за столиком в углу закусочной и к которому люди обращаются за помощью в исполнении их желаний. Отчаявшийся отец больного ребенка, женщина, которая хочет стать красивой, художник, ищущий вдохновения… Человек может исполнить любое желание, но за определенную цену. Для того, чтобы получить то, что они хотят, посетители должны поступиться своими моральными ценностями и совершить самый неприемлимый для них поступок — взорвать бомбу, ограбить банк, убить… Но Человек никого ни к чему не принуждает, но каждый должен сделать свой выбор — как далеко он готов зайти, чтобы получить желаемое.


Страна: США
Студия: Hanged Man Pictures, Lifeboat Productions, Tornante Company, Vanishing Point Entertainment, Vuguru
Продолжительность: 5 x ~ 00:21:00
Перевод: Профессиональный многоголосый

Файл
Кодек: x264
Качество: HDTVRip 1080p
Видео: MPEG-4 AVC, 8500 Кбит/с, 1920x1072, 25.000 кадр/с
Звук:
Русский (AC3, 2 ch, 384 Кбит/с)
Английский (AC3, 2 ch, 192 Кбит/с)
Семпл
Формат : Matroska
Версия формата : Version 2
Размер файла : 1,28 Гбайт
Продолжительность : 20 м.
Общий поток : 9067 Кбит/сек
Название фильма : Release for MediaClub by AlexAndr92
Дата кодирования : UTC 2013-09-13 15:38:14
Программа кодирования : mkvmerge v4.0.0 ('The Stars were mine') сборка от Jun 6 2010 16:18:42
Библиотека кодирования : libebml v1.0.0 + libmatroska v1.0.0

Видео
Идентификатор : 1
Формат : AVC
Формат/Информация : Advanced Video Codec
Профиль формата : High@L4.1
Параметр CABAC формата : Да
Параметр ReFrames формата : 4 кадра
Идентификатор кодека : V_MPEG4/ISO/AVC
Продолжительность : 20 м.
Битрейт : 8500 Кбит/сек
Ширина : 1920 пикселей
Высота : 1072 пикселя
Соотношение сторон : 16:9
Режим частоты кадров : Постоянный
Частота кадров : 25,000 кадров/сек
Цветовое пространство : YUV
Субдискретизация насыщенности : 4:2:0
Битовая глубина : 8 бит
Тип развёртки : Прогрессивная
Бит/(Пиксели*Кадры) : 0.165
Размер потока : 1,17 Гбайт (92%)
Библиотека кодирования : x264 core 130 r2273 b3065e6
Настройки программы : cabac=1 / ref=4 / deblock=1:-1:-1 / analyse=0x3:0x133 / me=umh / subme=11 / psy=1 / psy_rd=1.00:0.15 / mixed_ref=1 / me_range=32 / chroma_me=1 / trellis=2 / 8x8dct=1 / cqm=0 / deadzone=21,11 / fast_pskip=0 / chroma_qp_offset=-3 / threads=6 / lookahead_threads=1 / sliced_threads=0 / nr=0 / decimate=0 / interlaced=0 / bluray_compat=0 / constrained_intra=0 / bframes=8 / b_pyramid=2 / b_adapt=2 / b_bias=0 / direct=3 / weightb=1 / open_gop=0 / weightp=2 / keyint=250 / keyint_min=25 / scenecut=40 / intra_refresh=0 / rc=2pass / mbtree=0 / bitrate=8500 / ratetol=1.0 / qcomp=0.60 / qpmin=0 / qpmax=69 / qpstep=4 / cplxblur=20.0 / qblur=0.5 / ip_ratio=1.40 / pb_ratio=1.30 / aq=1:1.00
Default : Нет
Forced : Нет

Аудио #1
Идентификатор : 2
Формат : AC-3
Формат/Информация : Audio Coding 3
Расширение режима : CM (complete main)
Параметр Endianness формата : Big
Идентификатор кодека : A_AC3
Продолжительность : 20 м.
Вид битрейта : Постоянный
Битрейт : 384 Кбит/сек
Каналы : 2 канала
Расположение каналов : Front: L R
Частота : 48,0 КГц
Битовая глубина : 16 бит
Метод сжатия : С потерями
Размер потока : 55,3 Мбайт (4%)
Язык : Russian
Default : Да
Forced : Нет

Аудио #2
Идентификатор : 3
Формат : AC-3
Формат/Информация : Audio Coding 3
Расширение режима : CM (complete main)
Параметр Endianness формата : Big
Идентификатор кодека : A_AC3
Продолжительность : 20 м.
Вид битрейта : Постоянный
Битрейт : 192 Кбит/сек
Каналы : 2 канала
Расположение каналов : Front: L R
Частота : 48,0 КГц
Битовая глубина : 16 бит
Метод сжатия : С потерями
Размер потока : 27,7 Мбайт (2%)
Язык : English
Default : Нет
Forced : Нет






Релиз от: Релиз от: | AlexAndr92



   Похожие торренты   Торрент   Размер 
В этой теме нет новых непрочитанных сообщений. Столик в углу / The Booth at the End [S02] (2012) WEBRip | NovaFilm

2 | 2

568.49 МБ

В этой теме нет новых непрочитанных сообщений. Столик в углу / The Booth at the End [S01] (2010) SATRip - NewStudio

4 | 3

1.24 ГБ

В этой теме нет новых непрочитанных сообщений. Столик в углу / The Booth at the End [S01] (2010) WEBRip | NovaFilm

5 | 1

1.03 ГБ

В этой теме нет новых непрочитанных сообщений. Телефонная будка / Таксофон / Phone Booth (2002) Blu-ray Remux 1080p от ivandubskoj | D, P, A

10 | 7

20.6 ГБ

В этой теме нет новых непрочитанных сообщений. Телефонная будка / Phone Booth (2002) 720p HDTVRip | D

145 | 12

4.38 ГБ

В этой теме нет новых непрочитанных сообщений. Фотобокс / Photo booth (2012) WEBRip | Точка Zрения

7 | 3

34.38 МБ

В этой теме нет новых непрочитанных сообщений. Ты и я / Io e te (2012) HDTVRip 1080p от MediaClub | P

17 | 5

4.92 ГБ




Вы не можете начинать темы
Вы не можете отвечать на сообщения
Вы не можете редактировать свои сообщения
Вы не можете удалять свои сообщения
Вы не можете добавлять вложения

Перейти:  
Для Мосгорсуда, Роскомнадзора и рекламодателей: mosgorsud-torrent[собачка]yandex.ru
 Вход
ppkBB3cker v.2 © 2008-2014 @ PPK
[ Time : 0.053s | 14 Queries | GZIP : Off ]

Торрент трекер RUTOR.IN, Не можете зайти на rutor.org? Какой новый адрес рутор? Какое зеркало рутор? Не работает rutor.org и зеркала? Тогда наш торрент специально для вас. Rutor.in неофициальное зеркало rutor. В случае если у Вас заблокирован rutor или вдруг Вы не можете на него зайти, то Вы без труда сможете скачать бесплатно и без рекламы последние новинки кино, игр, сериалов и прочего у нас, на Rutor.in. Не нужно использовать прокси, чтобы зайти на рутор, достаточно воспользоваться нашим ресурсом. Все новые фильмы, игры, сериалы, книги и музыка за 2013 и 2014 годы через торрент бесплатно. Скачивайте фильмы в хорошем качестве, игры для пк, xbox, playstation без регистрации. У нас вы найдете новые Зарубежные сериалы и Русские сериалы 2013, 2014, 2015 годов. Оставайтесь с нами, качайте любимые фильмы, игры, сериалы, книги и музыку.