img image001 image001 image001 image001 image001 image001 image001 image001 image001 image001 image001 image001 image001 image001 image001

Planets Sun Sun Sun
Статистика раздачи
Автор: PriZraK | Размер: 1.99 ГБ | Добавлен: 15 фев 2014
Раздают: 329    Качают: 19
Скачать торрент
Скачать торрент
Описание торрента

СообщениеДобавлено: 15 фев 2014 



Страна: Россия
Производство: К/к "Браво"
Жанр: Мелодрама, криминал, комедия
Год выпуска: 2011

Продолжительность: 4 х ~ 00:48:00
Язык: Русский
Режиссер: Дмитрий Пантелеев, Анна Зайцева
В ролях: Виталий Хаев, Евгений Сангаджиев, Игорь Волков, Александра Шевченко, Станислав Лесной, Тимофей Криницкий, Мария Цап-Страшилина, Михаил Иванов



Описание: Старший следователь СКП Панкратов втайне от начальства (что ему свойственно) едет на расследование убийства своего давнего товарища и его семьи в Краснодарский край, где провокационными методами пытается вывести преступную группировку местного авторитета Сапуна, который к тому же является главой злополучного края, на чистую воду. Помогает ему в этом увязавшийся следом Сангаджи и очаровательная журналистка из Москвы Женя Колесникова, которую они встречают уже на месте, по уши увязнув в криминальной истории…

Исходник: DVD9 R5

Тип релиза: DVDRip

Контейнер: AVI
Видео: 720x400 (1.80:1), 23.976 fps, XviD ~1019 kbps avg, 0.15 bit/pixel
Аудио: #1: 48 kHz, AC3 2.0 ~448.00 kbps avg
Общее
Полное имя : D:залитьПровокатор1 серия.avi
Формат : AVI
Формат/Информация : Audio Video Interleave
Размер файла : 508 Мбайт
Продолжительность : 48 м.
Общий поток : 1477 Кбит/сек
Программа кодирования : VirtualDubMod 1.5.10.3 | www.virtualdub-fr.org || (build 2550/release)
Библиотека кодирования : VirtualDubMod build 2550/release

Видео
Идентификатор : 0
Формат : MPEG-4 Visual
Профиль формата : Advanced Simple@L5
Параметр BVOP формата : 2
Параметр QPel формата : Нет
Параметр GMC формата : Без точки перехода
Параметр матрицы формата : Default (MPEG)
Идентификатор кодека : XVID
Идентификатор кодека/Подсказка : XviD
Продолжительность : 48 м.
Битрейт : 1020 Кбит/сек
Ширина : 720 пикселей
Высота : 400 пикселей
Соотношение сторон : 16:9
Частота кадров : 23,976 кадра/сек
Цветовое пространство : YUV
Субдискретизация насыщенности : 4:2:0
Битовая глубина : 8 бит
Тип развёртки : Прогрессивная
Метод сжатия : С потерями
Бит/(Пиксели*Кадры) : 0.148
Размер потока : 351 Мбайт (69%)
Библиотека кодирования : XviD 1.2.1 (UTC 2008-12-04)

Аудио
Идентификатор : 1
Формат : AC-3
Формат/Информация : Audio Coding 3
Расширение режима : CM (complete main)
Параметр Endianness формата : Big
Идентификатор кодека : 2000
Продолжительность : 48 м.
Вид битрейта : Постоянный
Битрейт : 448 Кбит/сек
Каналы : 2 канала
Расположение каналов : Front: L R
Частота : 48,0 КГц
Битовая глубина : 16 бит
Метод сжатия : С потерями
Размер потока : 154 Мбайт (30%)
Выравнивание : Разделение по промежуткам
Продолжительность промежутка : 42 мс. (1,00 видеокадр)
Время предзагрузки промежутка : 500 мс.


Автор рипа:



   Похожие торренты   Торрент   Размер 
В этой теме нет новых непрочитанных сообщений. Провокатор [01-04 из 04] (2011) SATRip

43 | 3

2.38 ГБ

В этой теме нет новых непрочитанных сообщений. Провокатор [01-04 из 04] (2011) IPTVRip от KinoZalSat

15 | 9

2.16 ГБ

В этой теме нет новых непрочитанных сообщений. Провокатор / Provocateur (1998) DVDRip | A

91 | 76

1.39 ГБ

В этой теме нет новых непрочитанных сообщений. Провокатор / Incendiary (2008) DVDRip

1 | 2

695.87 МБ

В этой теме нет новых непрочитанных сообщений. Провокатор [01-06 из 20] (2015) SATRip

217 | 32

3.35 ГБ

В этой теме нет новых непрочитанных сообщений. Провокатор / Incendiary (2008) Blu-Ray

2 | 2

17.02 ГБ

В этой теме нет новых непрочитанных сообщений. Провокатор / Incendiary (2008) BDRip от HQCLUB

48 | 24

1.45 ГБ




Вы не можете начинать темы
Вы не можете отвечать на сообщения
Вы не можете редактировать свои сообщения
Вы не можете удалять свои сообщения
Вы не можете добавлять вложения

Перейти:  
Для Мосгорсуда, Роскомнадзора и рекламодателей: mosgorsud-torrent[собачка]yandex.ru
 Вход
ppkBB3cker v.2 © 2008-2014 @ PPK
[ Time : 0.062s | 15 Queries | GZIP : Off ]

Торрент трекер RUTOR.IN, Не можете зайти на rutor.org? Какой новый адрес рутор? Какое зеркало рутор? Не работает rutor.org и зеркала? Тогда наш торрент специально для вас. Rutor.in неофициальное зеркало rutor. В случае если у Вас заблокирован rutor или вдруг Вы не можете на него зайти, то Вы без труда сможете скачать бесплатно и без рекламы последние новинки кино, игр, сериалов и прочего у нас, на Rutor.in. Не нужно использовать прокси, чтобы зайти на рутор, достаточно воспользоваться нашим ресурсом. Все новые фильмы, игры, сериалы, книги и музыка за 2013 и 2014 годы через торрент бесплатно. Скачивайте фильмы в хорошем качестве, игры для пк, xbox, playstation без регистрации. У нас вы найдете новые Зарубежные сериалы и Русские сериалы 2013, 2014, 2015 годов. Оставайтесь с нами, качайте любимые фильмы, игры, сериалы, книги и музыку.
cron