img image001 image001 image001 image001 image001 image001 image001 image001 image001 image001 image001 image001 image001 image001 image001

Planets Sun Sun Sun
Статистика раздачи
Автор: PriZraK | Размер: 7.95 ГБ | Добавлен: 15 фев 2014
Раздают: 282    Качают: 66
Скачать торрент
Скачать торрент
Описание торрента

СообщениеДобавлено: 15 фев 2014 


«There is no paradise without sacrifice.»



Год выпуска: 2011
Страна: Австралия, США
Жанр: фантастика, детектив, приключения
Продолжительность: 43 минут - серия

Перевод: Профессиональный (многоголосый) Первый канал
Субтитры: русский, английский

Режиссеры: Джон Кассар / Jon Cassar, Карен Гавиола / Karen Gaviola, Алекс Грейвз / Alex Graves...

В ролях: Джейсон О’Мара, Шелли Конн, Кристин Адамс, Эллисон Миллер, Лэндон Либуарон, Наоми Скотт, Алана Мансур, Стивен Лэнг, Род Халлетт, Симона Кэссел...

Описание: 2149 год. Земля перенаселена. Большинство растений и животных уже исчезли с её лица. Будущее человечества под сомнением, единственную надежду на выживание ученые видят в прошлом. Неожиданно обнаруженный ими пространственно-временной портал позволяет претворить в жизнь самый смелый план — переселить людей на 85 миллионов лет назад с целью повторного восстановления цивилизации. Семье Шеннонов выпадает честь присоединиться к десятому паломничеству переселенцев на Терру Нову.



Исходник: WEBDL 720p
Качество: WEBDLRip
Формат: AVI

Видео: 720x400 (16:9), 23.976 fps, XViD ~ 1200 - 1287 kbps avg, 0.290 bit/pixel
Аудио 1: 48 kHz, АС3 6 ch, 384 kbps, русский
Аудио 2: 48 kHz, АС3 6 ch, 384 kbps, английский

Примечание: Файлы кодировались по максимальному качеству исходника, поэтому битрейт видео несколько разный, из этого исходника большего качества получить невозможно.

Раздача от:
01: Genesis / Начало Ч.1
02: Genesis / Начало Ч.2
03: Instinct / Инстинкт
04: What Remains / Оставшиеся Воспоминания
05: The Runaway / Беглец
06: Bylaw / Устав
07: Nightfall / Сумерки
08: Proof / Доказательство
09: Vs. / Противостояние
10: Now You See Me / Теперь ты видишь меня
11: Within / Внутри
12: Occupation / Оккупация
13: Resistance / Сопротивление

General
Complete name : Terra.Nova.2011.P.WEBDLRip_[Youtracker]_by_avproh3.avi
Format : AVI
Format/Info : Audio Video Interleave
File size : 611 MiB
Duration : 43mn 2s
Overall bit rate : 1 984 Kbps
Writing application : VirtualDubModRus 1.5.10.2 (build 2542/release)
Writing library : VirtualDubMod build 2542/release

Video
ID : 0
Format : MPEG-4 Visual
Format profile : Advanced Simple@L5
Format settings, BVOP : 1
Format settings, QPel : No
Format settings, GMC : No warppoints
Format settings, Matrix : Custom
Codec ID : XVID
Codec ID/Hint : XviD
Duration : 43mn 2s
Bit rate : 1 202 Kbps
Width : 720 pixels
Height : 400 pixels
Display aspect ratio : 16:9
Frame rate : 23.976 fps
Color space : YUV
Chroma subsampling : 4:2:0
Bit depth : 8 bits
Scan type : Progressive
Compression mode : Lossy
Bits/(Pixel*Frame) : 0.174
Stream size : 370 MiB (61%)
Writing library : XviD 73

Audio #1
ID : 1
Format : AC-3
Format/Info : Audio Coding 3
Mode extension : CM (complete main)
Format settings, Endianness : Big
Codec ID : 2000
Duration : 43mn 2s
Bit rate mode : Constant
Bit rate : 384 Kbps
Channel count : 6 channels
Channel positions : Front: L C R, Side: L R, LFE
Sampling rate : 48.0 KHz
Bit depth : 16 bits
Compression mode : Lossy
Stream size : 118 MiB (19%)
Alignment : Split accross interleaves
Interleave, duration : 42 ms (1.00 video frame)
Interleave, preload duration : 500 ms

Audio #2
ID : 2
Format : AC-3
Format/Info : Audio Coding 3
Mode extension : CM (complete main)
Format settings, Endianness : Big
Codec ID : 2000
Duration : 43mn 2s
Bit rate mode : Constant
Bit rate : 384 Kbps
Channel count : 6 channels
Channel positions : Front: L C R, Side: L R, LFE
Sampling rate : 48.0 KHz
Bit depth : 16 bits
Compression mode : Lossy
Stream size : 118 MiB (19%)
Alignment : Split accross interleaves
Interleave, duration : 42 ms (1.00 video frame)
Interleave, preload duration : 500 ms



http://rutor.org/torrent/146850/

Аудио: http://screenshotcomparison.com/comparison/41909 - это надо было умудриться как-то испортить звук исходника (в паре серий звук в норме).

Видео: http://screenshotcomparison.com/comparison/41908

Серии перепутаны и отсутствуют субтитры.



   Похожие торренты   Торрент   Размер 
В этой теме нет новых непрочитанных сообщений. Терра Нова / Terra Nova [S01] (2011) WEB-DLRip-AVC от New-Team | Первый канал

45 | 15

10.86 ГБ

В этой теме нет новых непрочитанных сообщений. Терра Нова / Terra Nova [S01] (2011) WEB-DLRip | Первый канал

59 | 18

7.27 ГБ

В этой теме нет новых непрочитанных сообщений. Терра Нова / Terra Nova [S01] (2011) WEB-DLRip | Первый канал

24 | 9

10.51 ГБ

В этой теме нет новых непрочитанных сообщений. Терра Нова / Terra Nova [01x13 из ???] (2011) WEB-DLRip | Первый канал

0 | 3

403.56 МБ

В этой теме нет новых непрочитанных сообщений. Терра Нова / Terra Nova [S01] (2011) WEB-DL 720p | Первый канал

151 | 41

18.95 ГБ

В этой теме нет новых непрочитанных сообщений. Терра Нова / Terra Nova [S01] (2011) HDTVRip-AVC | Первый канал

244 | 56

11.56 ГБ

В этой теме нет новых непрочитанных сообщений. Терра Нова / Terra Nova [S01] (2011) HDTVRip-AVC | Первый канал

137 | 24

13.67 ГБ




Вы не можете начинать темы
Вы не можете отвечать на сообщения
Вы не можете редактировать свои сообщения
Вы не можете удалять свои сообщения
Вы не можете добавлять вложения

Перейти:  
Для Мосгорсуда, Роскомнадзора и рекламодателей: mosgorsud-torrent[собачка]yandex.ru
 Вход
ppkBB3cker v.2 © 2008-2014 @ PPK
[ Time : 0.059s | 16 Queries | GZIP : Off ]

Торрент трекер RUTOR.IN, Не можете зайти на rutor.org? Какой новый адрес рутор? Какое зеркало рутор? Не работает rutor.org и зеркала? Тогда наш торрент специально для вас. Rutor.in неофициальное зеркало rutor. В случае если у Вас заблокирован rutor или вдруг Вы не можете на него зайти, то Вы без труда сможете скачать бесплатно и без рекламы последние новинки кино, игр, сериалов и прочего у нас, на Rutor.in. Не нужно использовать прокси, чтобы зайти на рутор, достаточно воспользоваться нашим ресурсом. Все новые фильмы, игры, сериалы, книги и музыка за 2013 и 2014 годы через торрент бесплатно. Скачивайте фильмы в хорошем качестве, игры для пк, xbox, playstation без регистрации. У нас вы найдете новые Зарубежные сериалы и Русские сериалы 2013, 2014, 2015 годов. Оставайтесь с нами, качайте любимые фильмы, игры, сериалы, книги и музыку.