img image001 image001 image001 image001 image001 image001 image001 image001 image001 image001 image001 image001 image001 image001 image001

Planets Sun Sun Sun
Статистика раздачи
Автор: PriZraK | Размер: 10.86 ГБ | Добавлен: 15 фев 2014
Раздают: 44    Качают: 16
Скачать торрент
Скачать торрент
Описание торрента

СообщениеДобавлено: 15 фев 2014 


«There is no paradise without sacrifice.»




Год выпуска: 2011
Страна: Австралия, США
Жанр: фантастика, детектив, приключения
Продолжительность: 43 минут - серия

Перевод: Профессиональный (многоголосый) Первый канал
Субтитры: русский, английский

Режиссеры: Джон Кассар / Jon Cassar, Карен Гавиола / Karen Gaviola, Алекс Грейвз / Alex Graves...

В ролях: Джейсон О’Мара, Шелли Конн, Кристин Адамс, Эллисон Миллер, Лэндон Либуарон, Наоми Скотт, Алана Мансур, Стивен Лэнг, Род Халлетт, Симона Кэссел...

Описание: 2149 год. Земля перенаселена. Большинство растений и животных уже исчезли с её лица. Будущее человечества под сомнением, единственную надежду на выживание ученые видят в прошлом. Неожиданно обнаруженный ими пространственно-временной портал позволяет претворить в жизнь самый смелый план — переселить людей на 85 миллионов лет назад с целью повторного восстановления цивилизации. Семье Шеннонов выпадает честь присоединиться к десятому паломничеству переселенцев на Терру Нову.



Исходник: WEBDL 720p
Качество: WEBDLRip-AVC
Формат: MKV

Видео: 1024x576 (16:9), 23.976 fps, H264 ~ 1800 - 1986 kbps avg, 0.140 bit/pixel
Аудио 1: 48 kHz, АС3 6 ch, 384 kbps, русский
Аудио 2: 48 kHz, АС3 6 ch, 384 kbps, английский

Примечание: Файлы кодировались, исходя из максимального качества исходника, поэтому битрейт видео несколько разный, из такого исходника большего качества получить невозможно.

Раздача от:
01: Genesis / Начало Ч.1
02: Genesis / Начало Ч.2
03: Instinct / Инстинкт
04: What Remains / Оставшиеся Воспоминания
05: The Runaway / Беглец
06: Bylaw / Устав
07: Nightfall / Сумерки
08: Proof / Доказательство
09: Vs. / Противостояние
10: Now You See Me / Теперь ты видишь меня
11: Within / Внутри
12: Occupation / Оккупация
13: Resistance / Сопротивление

General
Complete name : Terra.Nova.2011.P.WEBDLRip-AVC_[Youtracker]_by_avproh10.mkv
Format : Matroska
Format version : Version 4 / Version 2
File size : 818 MiB
Duration : 41mn 29s
Overall bit rate : 2 756 Kbps
Encoded date : UTC 2013-09-21 17:53:18
Writing application : mkvmerge v6.1.0 ('Old Devil') built on Mar 2 2013 14:32:37
Writing library : libebml v1.3.0 + libmatroska v1.4.0

Video
ID : 1
Format : AVC
Format/Info : Advanced Video Codec
Format profile : High@L4.1
Format settings, CABAC : Yes
Format settings, ReFrames : 11 frames
Codec ID : V_MPEG4/ISO/AVC
Duration : 41mn 29s
Bit rate : 1 986 Kbps
Width : 1 024 pixels
Height : 576 pixels
Display aspect ratio : 16:9
Frame rate mode : Constant
Frame rate : 23.976 fps
Color space : YUV
Chroma subsampling : 4:2:0
Bit depth : 8 bits
Scan type : Progressive
Bits/(Pixel*Frame) : 0.140
Stream size : 574 MiB (70%)
Writing library : x264 core 138 r2356 a1d3d17
Encoding settings : cabac=1 / ref=11 / deblock=1:-1:-1 / analyse=0x3:0x113 / me=umh / subme=9 / psy=1 / psy_rd=1.00:0.20 / mixed_ref=1 / me_range=32 / chroma_me=1 / trellis=1 / 8x8dct=1 / cqm=0 / deadzone=21,11 / fast_pskip=0 / chroma_qp_offset=-3 / threads=9 / lookahead_threads=1 / sliced_threads=0 / nr=0 / decimate=1 / interlaced=0 / bluray_compat=0 / constrained_intra=0 / bframes=8 / b_pyramid=2 / b_adapt=1 / b_bias=0 / direct=3 / weightb=1 / open_gop=0 / weightp=2 / keyint=240 / keyint_min=23 / scenecut=40 / intra_refresh=0 / rc_lookahead=60 / rc=2pass / mbtree=1 / bitrate=1986 / ratetol=1.0 / qcomp=0.60 / qpmin=0 / qpmax=69 / qpstep=4 / cplxblur=20.0 / qblur=0.5 / ip_ratio=1.40 / aq=1:1.00
Language : English
Default : Yes
Forced : No

Audio #1
ID : 2
Format : AC-3
Format/Info : Audio Coding 3
Mode extension : CM (complete main)
Format settings, Endianness : Big
Codec ID : A_AC3
Duration : 41mn 29s
Bit rate mode : Constant
Bit rate : 384 Kbps
Channel count : 6 channels
Channel positions : Front: L C R, Side: L R, LFE
Sampling rate : 48.0 KHz
Bit depth : 16 bits
Compression mode : Lossy
Stream size : 114 MiB (14%)
Language : Russian
Default : Yes
Forced : No

Audio #2
ID : 3
Format : AC-3
Format/Info : Audio Coding 3
Mode extension : CM (complete main)
Format settings, Endianness : Big
Codec ID : A_AC3
Duration : 41mn 29s
Bit rate mode : Constant
Bit rate : 384 Kbps
Channel count : 6 channels
Channel positions : Front: L C R, Side: L R, LFE
Sampling rate : 48.0 KHz
Bit depth : 16 bits
Compression mode : Lossy
Stream size : 114 MiB (14%)
Language : English
Default : No
Forced : No

Text #1
ID : 4
Format : UTF-8
Codec ID : S_TEXT/UTF8
Codec ID/Info : UTF-8 Plain Text
Language : Russian
Default : No
Forced : No

Text #2
ID : 5
Format : UTF-8
Codec ID : S_TEXT/UTF8
Codec ID/Info : UTF-8 Plain Text
Language : English
Default : No
Forced : No





   Похожие торренты   Торрент   Размер 
В этой теме нет новых непрочитанных сообщений. Терра Нова / Terra Nova [S01] (2011) WEB-DLRip от New-Team | Первый канал

282 | 64

7.95 ГБ

В этой теме нет новых непрочитанных сообщений. Терра Нова / Terra Nova [S01] (2011) WEB-DLRip | Первый канал

59 | 18

7.27 ГБ

В этой теме нет новых непрочитанных сообщений. Терра Нова / Terra Nova [S01] (2011) WEB-DLRip | Первый канал

24 | 9

10.51 ГБ

В этой теме нет новых непрочитанных сообщений. Терра Нова / Terra Nova [01x13 из ???] (2011) WEB-DLRip | Первый канал

0 | 3

403.56 МБ

В этой теме нет новых непрочитанных сообщений. Терра Нова / Terra Nova [S01] (2011) HDTVRip-AVC | Первый канал

244 | 56

11.56 ГБ

В этой теме нет новых непрочитанных сообщений. Терра Нова / Terra Nova [S01] (2011) HDTVRip-AVC | Первый канал

137 | 24

13.67 ГБ

В этой теме нет новых непрочитанных сообщений. Терра Нова / Terra Nova [S01] (2011) WEB-DL 720p | Первый канал

151 | 41

18.95 ГБ




Вы не можете начинать темы
Вы не можете отвечать на сообщения
Вы не можете редактировать свои сообщения
Вы не можете удалять свои сообщения
Вы не можете добавлять вложения

Перейти:  
Для Мосгорсуда, Роскомнадзора и рекламодателей: mosgorsud-torrent[собачка]yandex.ru
 Вход
ppkBB3cker v.2 © 2008-2014 @ PPK
[ Time : 0.028s | 16 Queries | GZIP : Off ]

Торрент трекер RUTOR.IN, Не можете зайти на rutor.org? Какой новый адрес рутор? Какое зеркало рутор? Не работает rutor.org и зеркала? Тогда наш торрент специально для вас. Rutor.in неофициальное зеркало rutor. В случае если у Вас заблокирован rutor или вдруг Вы не можете на него зайти, то Вы без труда сможете скачать бесплатно и без рекламы последние новинки кино, игр, сериалов и прочего у нас, на Rutor.in. Не нужно использовать прокси, чтобы зайти на рутор, достаточно воспользоваться нашим ресурсом. Все новые фильмы, игры, сериалы, книги и музыка за 2013 и 2014 годы через торрент бесплатно. Скачивайте фильмы в хорошем качестве, игры для пк, xbox, playstation без регистрации. У нас вы найдете новые Зарубежные сериалы и Русские сериалы 2013, 2014, 2015 годов. Оставайтесь с нами, качайте любимые фильмы, игры, сериалы, книги и музыку.
cron