img image001 image001 image001 image001 image001 image001 image001 image001 image001 image001 image001 image001 image001 image001 image001

Planets Sun Sun Sun
Статистика раздачи
Автор: PriZraK | Размер: 1.97 ГБ | Добавлен: 15 фев 2014
Раздают: 3    Качают: 10
Скачать торрент
Скачать торрент
Описание торрента

СообщениеДобавлено: 15 фев 2014 



Страна: Россия
Производство: Кинокомпания "Держава"
Жанр: Комедия, мелодрама
Год выпуска: 2010

Продолжительность: 4 х ~ 00:45:00
Язык: Русский
Режиссер: Михаил Крупин, Елена Рогачко
В ролях: Евгений Герасимов, Иван Громов, Алексей Маклаков, Любовь Руденко, Андрей Кузьмин, Алевтина Добрынина, Елена Князева, Елена Никишина, Оксана Скоропад, Анна Байдавлетова, Елена Валюшкина, Владислав Демченко, Тина Канделаки, Мария Кожевникова, Наталья Мильниченко, Светлана Немоляева, Евгения Огурцова
Описание: Трое мужчин (молодой фотограф Толик, издательский работник Алов и бизнесмен Репкин) встретились волею судьбы в вагоне поезда, в котором они едут каждый по своим делам. Выйдя на одной из остановок поезда на улицу "за пивком", они,все втроем, нечаянно остаются в городе с романтическим названием Каблучок...
Тип релиза: TVRip

Контейнер: AVI
Видео: 688x384 (1.79:1), 23.976 fps, XviD ~1427 kbps avg, 0.23 bit/pixel
Аудио: 48 kHz, MP3, 2.0 ~192.00 kbps avg

[http://webfile.ru/6684325]Сэмпл[/url]

Общее
Полное имя : D:залитьАмазонки из глубинки1.avi
Формат : AVI
Формат/Информация : Audio Video Interleave
Размер файла : 504 Мбайт
Продолжительность : 43 м.
Общий поток : 1629 Кбит/сек
Программа кодирования : VirtualDubMod 1.5.10.3 | www.virtualdub-fr.org || (build 2550/release)
Библиотека кодирования : VirtualDubMod build 2550/release

Видео
Идентификатор : 0
Формат : MPEG-4 Visual
Профиль формата : Advanced Simple@L5
Параметр BVOP формата : 2
Параметр QPel формата : Нет
Параметр GMC формата : Без точки перехода
Параметр матрицы формата : Default (MPEG)
Идентификатор кодека : XVID
Идентификатор кодека/Подсказка : XviD
Продолжительность : 43 м.
Битрейт : 1428 Кбит/сек
Ширина : 688 пикселей
Высота : 384 пикселя
Соотношение сторон : 16:9
Частота кадров : 23,976 кадра/сек
Цветовое пространство : YUV
Субдискретизация насыщенности : 4:2:0
Битовая глубина : 8 бит
Тип развёртки : Прогрессивная
Метод сжатия : С потерями
Бит/(Пиксели*Кадры) : 0.225
Размер потока : 442 Мбайт (88%)
Библиотека кодирования : XviD 1.2.1 (UTC 2008-12-04)

Аудио
Идентификатор : 1
Формат : MPEG Audio
Версия формата : Version 1
Профиль формата : Layer 2
Идентификатор кодека : 50
Продолжительность : 43 м.
Вид битрейта : Постоянный
Битрейт : 192 Кбит/сек
Каналы : 2 канала
Частота : 48,0 КГц
Метод сжатия : С потерями
Размер потока : 59,4 Мбайт (12%)
Выравнивание : Соединение по промежуткам
Продолжительность промежутка : 42 мс. (1,00 видеокадр)
Время предзагрузки промежутка : 504 мс.


Автор рипа:



   Похожие торренты   Торрент   Размер 
В этой теме нет новых непрочитанных сообщений. Мифы Амазонки / Mythos Amazonas (2010) Blu-Ray

0 | 1

22.34 ГБ

В этой теме нет новых непрочитанных сообщений. Мифы Амазонки / Mythos Amazonas (2010) HDRip

8 | 2

2.17 ГБ

В этой теме нет новых непрочитанных сообщений. Злодеи из глубинки / Small Town Folk (2007) DVDRip

1 | 3

1.37 ГБ

В этой теме нет новых непрочитанных сообщений. Мифы Амазонки / Mythos Amazonas (2010) BDRip-AVC от HQCLUB

2 | 1

4.38 ГБ

В этой теме нет новых непрочитанных сообщений. Профессия репортер. Сектанты из глубинки: секс и смерть [2014.09.27] (2014) SATRip

91 | 11

410.8 МБ

В этой теме нет новых непрочитанных сообщений. National Geographic. Дикая природа Амазонки / National Geographic. Wild Amazon [2 из 2] (2010) HDTVRip от ExKinoRay

24 | 6

1.37 ГБ

В этой теме нет новых непрочитанных сообщений. Баскетбол. НБА. Матч всех Звезд 2010 / NBA. All-Star Game 2010 (2010) TVRip

9 | 6

2.2 ГБ




Вы не можете начинать темы
Вы не можете отвечать на сообщения
Вы не можете редактировать свои сообщения
Вы не можете удалять свои сообщения
Вы не можете добавлять вложения

Перейти:  
Для Мосгорсуда, Роскомнадзора и рекламодателей: mosgorsud-torrent[собачка]yandex.ru
 Вход
ppkBB3cker v.2 © 2008-2014 @ PPK
[ Time : 0.562s | 14 Queries | GZIP : On ]

Торрент трекер RUTOR.IN, Не можете зайти на rutor.org? Какой новый адрес рутор? Какое зеркало рутор? Не работает rutor.org и зеркала? Тогда наш торрент специально для вас. Rutor.in неофициальное зеркало rutor. В случае если у Вас заблокирован rutor или вдруг Вы не можете на него зайти, то Вы без труда сможете скачать бесплатно и без рекламы последние новинки кино, игр, сериалов и прочего у нас, на Rutor.in. Не нужно использовать прокси, чтобы зайти на рутор, достаточно воспользоваться нашим ресурсом. Все новые фильмы, игры, сериалы, книги и музыка за 2013 и 2014 годы через торрент бесплатно. Скачивайте фильмы в хорошем качестве, игры для пк, xbox, playstation без регистрации. У нас вы найдете новые Зарубежные сериалы и Русские сериалы 2013, 2014, 2015 годов. Оставайтесь с нами, качайте любимые фильмы, игры, сериалы, книги и музыку.