img image001 image001 image001 image001 image001 image001 image001 image001 image001 image001 image001 image001 image001 image001 image001

Planets Sun Sun Sun
Статистика раздачи
Автор: PriZraK | Размер: 4.58 ГБ | Добавлен: 15 фев 2014
Раздают: 3    Качают: 2
Скачать торрент
Скачать торрент
Описание торрента

СообщениеДобавлено: 15 фев 2014 




Оригинальное название: Я рядом
Год выпуска: 2013
Жанр: Мелодрама
Режиссер: Владимир Янощук
В ролях: Шамиль Хаматов, Ада Роговцева, Ольга Арнтгольц, Алина Сергеева, Павел Баршак, Роман Македонский, Виталий Линецкий, Ирина Мельник, Наталия Васько

Описание: Капитан красной армии Иван Толканников расстрелял беглого солдата. Бабка Захария, которая укрывала дезертира, в сердцах прокляла Ивана - будешь мучиться в трёх поколениях. Не знать взаимного счастья любви. Убегать от вас будут, как от чудищ, женщины, которых вы полюбите. От криков старухи Толканников отмахнулся. Саня Толканников слышал эту историю много раз, по-детски верил в проклятие. Ведь сам видел, не ладилась жизнь и у деда с бабкой, и у отца с матерью. Любовь самого Саньки встретилась еще, когда был мальчишкой. В больнице влюбился в соседку по больничной палате - черноглазую Элю. Она с подружкой Лидой сразу не взлюбила Сашку. Считала его малолетним бандитом. В больнице поговаривали, что Саню побил товарищ, когда вдвоём краденое не поделили. Зэк. Так оно со стороны и было…Обидно, ведь Саню подставили.

Выпущено: Россия, Украина, "Star Media"
Продолжительность: 4 х ~ 00:45:00
Язык: Русский


Качество: WEB-DL 1080p
Видео: MPEG-4 AVC, ~ 3500 Кбит/с, 1920x1080
Аудио rus: AС3, 2 ch, 192 Кбит/с

Семпл

Полное имя : D:Ya.ryadom.2013.WEB-DL.(1080p).NikolspupYa.ryadom.(1.seriya.iz.4).2013.WEB-DL.(1080p).Nikolspup.mkv
Формат : Matroska
Версия формата : Version 4 / Version 2
Размер файла : 1,26 Гбайт
Продолжительность : 41 м.
Общий поток : 4299 Кбит/сек
Дата кодирования : UTC 2013-09-18 12:29:36
Программа кодирования : mkvmerge v6.3.0 ('You can't stop me!') built on Jun 28 2013 20:09:41
Библиотека кодирования : libebml v1.3.0 + libmatroska v1.4.0

Видео
Идентификатор : 1
Формат : VP8
Идентификатор кодека : V_VP8
Продолжительность : 41 м.
Битрейт : 4021 Кбит/сек
Ширина : 1920 пикселей
Высота : 1080 пикселей
Соотношение сторон : 16:9
Режим частоты кадров : Постоянный
Частота кадров : 25,000 кадров/сек
Метод сжатия : С потерями
Бит/(Пиксели*Кадры) : 0.078
Размер потока : 1,18 Гбайт (94%)
Default : Да
Forced : Да

Аудио
Идентификатор : 2
Формат : AC-3
Формат/Информация : Audio Coding 3
Расширение режима : CM (complete main)
Параметр Endianness формата : Big
Идентификатор кодека : A_AC3
Продолжительность : 41 м.
Вид битрейта : Постоянный
Битрейт : 192 Кбит/сек
Каналы : 2 канала
Расположение каналов : Front: L R
Частота : 44,1 КГц
Битовая глубина : 16 бит
Метод сжатия : С потерями
Размер потока : 57,6 Мбайт (4%)
Язык : Russian
Default : Да
Forced : Да



Релиз от:



   Похожие торренты   Торрент   Размер 
В этой теме нет новых непрочитанных сообщений. Я буду рядом (2013) HDTV 1080p от MediaClub

135 | 10

4.07 ГБ

В этой теме нет новых непрочитанных сообщений. L'One ft. Тимати - Будущее где-то рядом [Rap, Hip-Hop] (2013) Full HD 1080p

23 | 3

99.11 МБ

В этой теме нет новых непрочитанных сообщений. Я рядом [01-04 из 04] (2013) DVB от Files-x

68 | 6

3.42 ГБ

В этой теме нет новых непрочитанных сообщений. Я рядом [01-04 из 04] (2013) HDTVRip от Files-x

83 | 12

2.15 ГБ

В этой теме нет новых непрочитанных сообщений. Я рядом [01-04 из 04] (2013) HDTVRip-AVC от Files-x

136 | 8

2.73 ГБ

В этой теме нет новых непрочитанных сообщений. Я рядом [01-04 из 04] (2013) HDTV 1080i

83 | 54

10.58 ГБ

В этой теме нет новых непрочитанных сообщений. Я рядом [01-04 из 04] (2013) SATRip от Files-x

70 | 15

2.32 ГБ




Вы не можете начинать темы
Вы не можете отвечать на сообщения
Вы не можете редактировать свои сообщения
Вы не можете удалять свои сообщения
Вы не можете добавлять вложения

Перейти:  
Для Мосгорсуда, Роскомнадзора и рекламодателей: mosgorsud-torrent[собачка]yandex.ru
 Вход
ppkBB3cker v.2 © 2008-2014 @ PPK
[ Time : 0.037s | 14 Queries | GZIP : Off ]

Торрент трекер RUTOR.IN, Не можете зайти на rutor.org? Какой новый адрес рутор? Какое зеркало рутор? Не работает rutor.org и зеркала? Тогда наш торрент специально для вас. Rutor.in неофициальное зеркало rutor. В случае если у Вас заблокирован rutor или вдруг Вы не можете на него зайти, то Вы без труда сможете скачать бесплатно и без рекламы последние новинки кино, игр, сериалов и прочего у нас, на Rutor.in. Не нужно использовать прокси, чтобы зайти на рутор, достаточно воспользоваться нашим ресурсом. Все новые фильмы, игры, сериалы, книги и музыка за 2013 и 2014 годы через торрент бесплатно. Скачивайте фильмы в хорошем качестве, игры для пк, xbox, playstation без регистрации. У нас вы найдете новые Зарубежные сериалы и Русские сериалы 2013, 2014, 2015 годов. Оставайтесь с нами, качайте любимые фильмы, игры, сериалы, книги и музыку.