img image001 image001 image001 image001 image001 image001 image001 image001 image001 image001 image001 image001 image001 image001 image001

Planets Sun Sun Sun
Статистика раздачи
Автор: PriZraK | Размер: 36.14 ГБ | Добавлен: 15 фев 2014
Раздают: 16    Качают: 5
Скачать торрент
Скачать торрент
Описание торрента

СообщениеДобавлено: 15 фев 2014 




Оригинальное название: Вангелия (Ванга)
Год выпуска: 2013
Жанр: Драма, биография
Режиссер: Сергей Борчуков
В ролях: Елена Яковлева, Ирина Рахманова, Наталья Николаева, Дарья Отрошко, Кристина Пакарина, Карина Андоленко, Таисия Вилкова, Евгений Князев, Анатолий Белый, Даниил Белых, Александра Платонова, Антон Макарский, Александр Андриенко, Екатерина Молоховская, Света Цуба, Вера Цуба, Макс Бирюков

Описание: Жизнь и предсказания знаменитой болгарской ясновидящей Ванги (Вангелии Гущеровой) в последние годы вызвали новую волну массового зрительского интереса. "Вангелия" - первая и на сегодняшний день единственная художественная картина о предсказательнице. В картине вся жизнь Ванги от рождения до смерти. Все ключевые моменты ее биографии фактически отражают важные события бурного ХХ века. В сценарии фильма использованы воспоминания реальных людей, в том числе родственников Ванги. Авторы Владимир и Татьяна Сотниковы ввели в фильм и те моменты биографии Ванги, которые стали легендами. Так, например, не сохранилось документальных свидетельств визита к Ванге Гитлера в 1943 году. Однако существует немало устных свидетельств того, что такая встреча происходила. Интерес Гитлера к мистике, создание по его приказу специальной эзотерической организации "Анненербе" - тому подтверждение. Предсказание, которое сделала Ванга Гитлеру, является одним из ярких моментов фильма – так же, как и предсказание точной даты смерти Сталина, за которое она была заключена в тюрьму. "Все же это не документальное, а художественное кино,- говорит режиссер фильма Сергей Барчуков,- В первую очередь это фильм о человеке. У Ванги была тяжелая жизнь- она прожила с закрытыми глазами 75 лет! Люди шли к ней со своей болью. А она понимала, что не все, что знаешь, стоит рассказывать: чтобы не обидеть, не убить, не покалечить словом."

Выпущено: Беларусь, Болгария, Россия
Продолжительность: 12 х ~ 00:52:00
Язык: Русский


Качество: HDTV 1080i
Видео: AVC, ~ 7900 Кбит/с, 1920x1080
Аудио rus: MP3, 2 ch, 192 Кбит/с

Семпл

Полное имя : K:Вангелия (2013, Сериал, Биографи, Драма, HDTV 1080i) (MYDIMKA).01 серия.ts
Формат : MPEG-TS
Размер файла : 3,08 Гбайт
Продолжительность : 51 м.
Режим общего битрейта : Переменный
Общий поток : 8475 Кбит/сек

Видео
Идентификатор : 2931 (0xB73)
Идентификатор меню : 1 (0x1)
Формат : AVC
Формат/Информация : Advanced Video Codec
Профиль формата : High@L4.0
Параметр CABAC формата : Да
Параметр ReFrames формата : 3 кадра
Идентификатор кодека : 27
Продолжительность : 51 м.
Битрейт : 7863 Кбит/сек
Ширина : 1920 пикселей
Высота : 1080 пикселей
Соотношение сторон : 16:9
Частота кадров : 25,000 кадров/сек
Цветовое пространство : YUV
Субдискретизация насыщенности : 4:2:0
Битовая глубина : 8 бит
Тип развёртки : MBAFF
Бит/(Пиксели*Кадры) : 0.152
Размер потока : 2,85 Гбайт (93%)

Аудио
Идентификатор : 2932 (0xB74)
Идентификатор меню : 1 (0x1)
Формат : MPEG Audio
Версия формата : Version 1
Профиль формата : Layer 2
Идентификатор кодека : 3
Продолжительность : 51 м.
Вид битрейта : Постоянный
Битрейт : 192 Кбит/сек
Каналы : 2 канала
Частота : 48,0 КГц
Метод сжатия : С потерями
Размер потока : 71,4 Мбайт (2%)
Язык : Russian


Внимание! Раздача ведётся путём добавления новых серий; при каждом добавлении создfётся новый торрент. Чтобы начать докачку новой серии, пользователям необходимо сделать следующее: (1) остановить скачивание, (2) удалить старый торрент у себя из клиента (старые серии удалять не надо), (3) скачать новый торрент и запустить его у себя в клиенте вместо старого, при этом указать клиенту путь в старую папку куда и должно происходить скачивание новых серий.

Ваш клиент при этом должен произвести хеширование (проверку) старой папки (если не производит сам - помогите ему сделать это), и будет докачивать только те серии которых у вас ещё нет. Старые серии при этом не удаляются, а продолжают раздаваться!

Eсли вы уже удалили старые серии, то предотвратить повторную закачку старых серий можно, отжав галочку в соответсвующих местах при запуске нового торрента.

Релиз от:



   Похожие торренты   Торрент   Размер 
В этой теме нет новых непрочитанных сообщений. Вангелия / Ванга [01-12 из 12] (2013) SATRip

368 | 43

7.04 ГБ

В этой теме нет новых непрочитанных сообщений. Вангелия / Ванга [01-12 из 12] (2013) HDTVRip от Files-x

238 | 24

7.62 ГБ

В этой теме нет новых непрочитанных сообщений. Вангелия / Ванга [01-12 из 12] (2013) HDTVRip 720p

37 | 15

18.67 ГБ

В этой теме нет новых непрочитанных сообщений. Вангелия / Ванга [01-12 из 12] (2013) WEB-DLRip от Generalfilm

67 | 27

8.17 ГБ

В этой теме нет новых непрочитанных сообщений. Вангелия (Ванга) [01-12 из 12] (2013) WEB-DLRip-AVC от ExKinoRay

49 | 38

8.15 ГБ

В этой теме нет новых непрочитанных сообщений. Вангелия (Ванга) [01-12 из 12] (2013) 2xDVD9 от New-Team | Лицензия

71 | 10

15.53 ГБ

В этой теме нет новых непрочитанных сообщений. Нам и не снилось. Ванга. Продолжение [эфир от 20.02] (2013) SATRip

20 | 6

1.63 ГБ




Вы не можете начинать темы
Вы не можете отвечать на сообщения
Вы не можете редактировать свои сообщения
Вы не можете удалять свои сообщения
Вы не можете добавлять вложения

Перейти:  
Для Мосгорсуда, Роскомнадзора и рекламодателей: mosgorsud-torrent[собачка]yandex.ru
 Вход
ppkBB3cker v.2 © 2008-2014 @ PPK
[ Time : 0.528s | 14 Queries | GZIP : Off ]

Торрент трекер RUTOR.IN, Не можете зайти на rutor.org? Какой новый адрес рутор? Какое зеркало рутор? Не работает rutor.org и зеркала? Тогда наш торрент специально для вас. Rutor.in неофициальное зеркало rutor. В случае если у Вас заблокирован rutor или вдруг Вы не можете на него зайти, то Вы без труда сможете скачать бесплатно и без рекламы последние новинки кино, игр, сериалов и прочего у нас, на Rutor.in. Не нужно использовать прокси, чтобы зайти на рутор, достаточно воспользоваться нашим ресурсом. Все новые фильмы, игры, сериалы, книги и музыка за 2013 и 2014 годы через торрент бесплатно. Скачивайте фильмы в хорошем качестве, игры для пк, xbox, playstation без регистрации. У нас вы найдете новые Зарубежные сериалы и Русские сериалы 2013, 2014, 2015 годов. Оставайтесь с нами, качайте любимые фильмы, игры, сериалы, книги и музыку.