img image001 image001 image001 image001 image001 image001 image001 image001 image001 image001 image001 image001 image001 image001 image001

Planets Sun Sun Sun
Статистика раздачи
Автор: PriZraK | Размер: 7.16 ГБ | Добавлен: 15 фев 2014
Раздают: 38    Качают: 4
Скачать торрент
Скачать торрент
Описание торрента

СообщениеДобавлено: 15 фев 2014 




Оригинальное название: Одержимый (Джек Потрошитель)
Год выпуска: 2010
Жанр: Триллер, детектив
Режиссер: Евгений Звездаков
В ролях: Дмитрий Марьянов, Мария Машкова, Даниил Спиваковский, Ромуальд Макаренко, Дмитрий Исаев, Андрей Ургант, Светлана Крючкова, Владимир Бирюков, Владимир Чернышов, Владислав Резник, Андрей Папанин, Роман Притула

Описание: Изучая обстоятельства дел об убийствах проституток, Николай Троицкий догадывается, что все эти преступления – дело рук одного и того же человека. Но для районного отдела милиции главное – побыстрее закрыть дело, поэтому добросовестному оперу приходится вести собственное расследование. Троицкий и заинтересовавшаяся этим делом журналистка Жанна замечают странное сходство деталей нынешних убийств с лондонскими событиями 120-летней давности. Тогда, в 1888 году, в английской столице произошла серия жестоких расправ над проститутками. Убийца, называвший себя Джеком Потрошителем, был искренне убежден, что таким образом он способствует очищению мира от скверны. В ходе начатого расследования Троицкому становится понятно, что в наши дни в Санкт-Петербурге живет человек, вообразивший, будто в нем воплотился неистовый дух лондонского Потрошителя. Объединив усилия, оперативник и журналистка идут по следу маньяка. Увлеченные поиском истины, они не сразу замечают, как их дружеские отношения перерастают в настоящую любовь. Случайный знакомый – ученый и специалист по африканской культуре Маврин – помогает Жанне и Троицкому в расшифровке загадочной надписи на случайно обнаруженном орудии убийств. Может, именно в ней содержится ключ к разгадке?

Выпущено: Россия
Продолжительность: 12 x ~ 00:49:00
Язык: Русский

Качество: SATRip
Видео: XviD, ~ 1673 Кбит/с, 720x400
Аудио rus: AC3, 2 ch, 192 Кбит/с

Полное имя : D:Oderzhymyj.(Dzek.Potroshitely).tahiy�1.Oderzhymyj.(Dzek.Potroshitely).tahiy.avi
Формат : AVI
Формат/Информация : Audio Video Interleave
Размер файла : 611 Мбайт
Продолжительность : 47 м.
Общий поток : 1783 Кбит/сек
Название фильма : Одержимый (Джек Потрошитель)
Режиссёр : - = Rip by tahiy = -
Программа кодирования : VirtualDubMod 1.5.10.3 | www.virtualdub-fr.org || (build 2550/release)

Видео
Идентификатор : 0
Формат : MPEG-4 Visual
Профиль формата : Advanced Simple@L5
Параметр BVOP формата : 1
Параметр QPel формата : Нет
Параметр GMC формата : Без точки перехода
Параметр матрицы формата : Default (MPEG)
Идентификатор кодека : XVID
Идентификатор кодека/Подсказка : XviD
Продолжительность : 47 м.
Битрейт : 1581 Кбит/сек
Ширина : 720 пикселей
Высота : 400 пикселей
Соотношение сторон : 16:9
Частота кадров : 25,000 кадров/сек
Цветовое пространство : YUV
Субдискретизация насыщенности : 4:2:0
Битовая глубина : 8 бит
Тип развёртки : Прогрессивная
Метод сжатия : С потерями
Бит/(Пиксели*Кадры) : 0.220
Размер потока : 542 Мбайт (89%)
Библиотека кодирования : XviD 1.2.1 (UTC 2008-12-04)

Аудио
Идентификатор : 1
Формат : AC-3
Формат/Информация : Audio Coding 3
Расширение режима : CM (complete main)
Параметр Endianness формата : Big
Идентификатор кодека : 2000
Продолжительность : 47 м.
Вид битрейта : Постоянный
Битрейт : 192 Кбит/сек
Каналы : 2 канала
Расположение каналов : Front: L R
Частота : 48,0 КГц
Битовая глубина : 16 бит
Метод сжатия : С потерями
Размер потока : 65,8 Мбайт (11%)
Выравнивание : Разделение по промежуткам
Продолжительность промежутка : 40 мс. (1,00 видеокадр)
Время предзагрузки промежутка : 500 мс.




   Похожие торренты   Торрент   Размер 
В этой теме нет новых непрочитанных сообщений. Одержимый (Джек Потрошитель) [01x12 из 12] (2010) DVDRip от КинозалSAT

23 | 3

7.04 ГБ

В этой теме нет новых непрочитанных сообщений. Одержимый (Джек Потрошитель) (2010) DVD9

0 | 2

7.67 ГБ

В этой теме нет новых непрочитанных сообщений. Одержимый (Джек Потрошитель) [12 из 12] (2010) DVDRip

171 | 10

5.86 ГБ

В этой теме нет новых непрочитанных сообщений. Одержимый (Джек Потрошитель) [01-12 из 12] (2009) WEBRip-AVC

127 | 31

7.11 ГБ

В этой теме нет новых непрочитанных сообщений. Discovery: Джек Потрошитель в Америке / Discovery: Jack The Ripper In America (2009) SATRip

2 | 2

490.24 МБ

В этой теме нет новых непрочитанных сообщений. Джек Потрошитель / Jack the Ripper (2004) PC

15 | 3

1.43 ГБ

В этой теме нет новых непрочитанных сообщений. Джек-потрошитель / Jack the Ripper (1976) HDRip | A

23 | 3

1.46 ГБ




Вы не можете начинать темы
Вы не можете отвечать на сообщения
Вы не можете редактировать свои сообщения
Вы не можете удалять свои сообщения
Вы не можете добавлять вложения

Перейти:  
Для Мосгорсуда, Роскомнадзора и рекламодателей: mosgorsud-torrent[собачка]yandex.ru
 Вход
ppkBB3cker v.2 © 2008-2014 @ PPK
[ Time : 0.052s | 15 Queries | GZIP : Off ]

cron