img image001 image001 image001 image001 image001 image001 image001 image001 image001 image001 image001 image001 image001 image001 image001

Planets Sun Sun Sun
Статистика раздачи
Автор: PriZraK | Размер: 897.32 МБ | Добавлен: 15 фев 2014
Раздают: 21    Качают: 9
Скачать торрент
Скачать торрент
Описание торрента

СообщениеДобавлено: 15 фев 2014 





Сезон: 5 часть 2 / Серии: 17-19 из ??

Год выпуска: 2013
Страна: Россия
Жанр: СитКом
Продолжительность: 25 минут серия
Перевод: Не требуется
Субтитры: нет

Режиссер: Жанна Кадникова

В ролях: Николай Наумов (Колян), Антон Богданов (Антоха), Владимир Селиванов (Вован), Станислав Тляшев (Эдик), Зоя Бербер (Лера), Марина Федункив (Марина, мама Коляна), Мария Скорницкая (Машка), Валентина Мазунина (Валя), Армен Бежанян (Армен), Игорь Ознобихин (участковый Игорь Сергеевич), Алексей Базанов (Базанов), Елена Печищева.

Описание: Обычный, рядовой российский парень Коля не может определиться между жизнью «на районе» и миром пермской элиты общества. На протяжении всего сериала его ждут увлекательные и смешные истории.



Качество: WEB-DLRip
Формат: AVI
Видео кодек: XviD
Аудио кодек: MP3
Видео: 720x400 (1.80:1), 25 fps, XviD build 73 ~1733 kbps avg, 0.24 bit/pixel
Аудио: 48 kHz, MPEG Layer 3, 2 ch, ~128.00 kbps avg

Раздача от:


D:Мои рипыРеальные пацаны.Московский сезон.Часть 2.dexter_lexРеальные пацаны.Московский сезон.Часть 2.01 серия.dexter_lex.avi
General
Complete name : D:Мои рипыРеальные пацаны.Московский сезон.Часть 2.dexter_lexРеальные пацаны.Московский сезон.Часть 2.01 серия.dexter_lex.avi
Format : AVI
Format/Info : Audio Video Interleave
File size : 299 MiB
Duration : 22mn 21s
Overall bit rate : 1 871 Kbps
Writing application : VirtualDubMod 1.5.10.3 | www.virtualdub-fr.org || (build 2550/release)
Writing library : VirtualDubMod build 2550/release
Video #0
ID : 0
Format : MPEG-4 Visual
Format profile : Advanced Simple@L5
Format settings, BVOP : 1
Format settings, QPel : No
Format settings, GMC : No warppoints
Format settings, Matrix : Custom
Codec ID : XVID
Codec ID/Hint : XviD
Duration : 22mn 21s
Bit rate : 1 733 Kbps
Width : 720 pixels
Height : 400 pixels
Display aspect ratio : 16:9
Frame rate : 25.000 fps
Color space : YUV
Chroma subsampling : 4:2:0
Bit depth : 8 bits
Scan type : Progressive
Compression mode : Lossy
Bits/(Pixel*Frame) : 0.241
Stream size : 277 MiB (93%)
Writing library : XviD 73
Audio #1
ID : 1
Format : MPEG Audio
Format version : Version 1
Format profile : Layer 3
Codec ID : 55
Codec ID/Hint : MP3
Duration : 22mn 21s
Bit rate mode : Constant
Bit rate : 128 Kbps
Channel(s) : 2 channels
Sampling rate : 44.1 KHz
Compression mode : Lossy
Stream size : 20.5 MiB (7%)
Alignment : Split accross interleaves
Interleave, duration : 40 ms (1.00 video frame)
Interleave, preload duration : 500 ms
Writing library : LAME3.99r
Encoding settings : -m s -V 4 -q 2 -lowpass 17 -b 128



   Похожие торренты   Торрент   Размер 
В этой теме нет новых непрочитанных сообщений. Реальные пацаны [06х01-16] (2013) WEB-DLRip от New-team

95 | 15

4.7 ГБ

В этой теме нет новых непрочитанных сообщений. Реальные пацаны. Возвращение [06х01-16] (2014) WEB-DLRip от New-Team

211 | 322

4.68 ГБ

В этой теме нет новых непрочитанных сообщений. Реальные пацаны. Возвращение [06х01-04] (2014) WEB-DLRip от New-Team

162 | 112

1.17 ГБ

В этой теме нет новых непрочитанных сообщений. Реальные пацаны [05x01-16] (2013) SATRip от New-team

228 | 71

4.68 ГБ

В этой теме нет новых непрочитанных сообщений. Реальные пацаны [06х01-11] (2013) WEB-DLRip-AVC

2 | 4

3.93 ГБ

В этой теме нет новых непрочитанных сообщений. Реальные пацаны [06х15] (2013) WEB-DLRip от FreeRutor

34 | 5

300.19 МБ

В этой теме нет новых непрочитанных сообщений. Реальные пацаны [06х14] (2013) WEB-DLRip от FreeRutor

34 | 6

301.31 МБ




Вы не можете начинать темы
Вы не можете отвечать на сообщения
Вы не можете редактировать свои сообщения
Вы не можете удалять свои сообщения
Вы не можете добавлять вложения

Перейти:  
Для Мосгорсуда, Роскомнадзора и рекламодателей: mosgorsud-torrent[собачка]yandex.ru
 Вход
ppkBB3cker v.2 © 2008-2014 @ PPK
[ Time : 0.082s | 16 Queries | GZIP : Off ]

Торрент трекер RUTOR.IN, Не можете зайти на rutor.org? Какой новый адрес рутор? Какое зеркало рутор? Не работает rutor.org и зеркала? Тогда наш торрент специально для вас. Rutor.in неофициальное зеркало rutor. В случае если у Вас заблокирован rutor или вдруг Вы не можете на него зайти, то Вы без труда сможете скачать бесплатно и без рекламы последние новинки кино, игр, сериалов и прочего у нас, на Rutor.in. Не нужно использовать прокси, чтобы зайти на рутор, достаточно воспользоваться нашим ресурсом. Все новые фильмы, игры, сериалы, книги и музыка за 2013 и 2014 годы через торрент бесплатно. Скачивайте фильмы в хорошем качестве, игры для пк, xbox, playstation без регистрации. У нас вы найдете новые Зарубежные сериалы и Русские сериалы 2013, 2014, 2015 годов. Оставайтесь с нами, качайте любимые фильмы, игры, сериалы, книги и музыку.
cron