img image001 image001 image001 image001 image001 image001 image001 image001 image001 image001 image001 image001 image001 image001 image001 image001

Planets Sun Sun Sun
Статистика раздачи
Автор: PriZraK | Размер: 11.59 ГБ | Добавлен: 15 фев 2014
Раздают: 0    Качают: 6
Скачать торрент
Скачать торрент
Описание торрента

СообщениеДобавлено: 15 фев 2014 


До смертикрасива / Drop DeadDiva
Название: До смерти красива
Оригинальное название: Drop Dead Diva
Год выпуска: 2013
Жанр: Комедия, драма, юриспруденция, фантастика
Выпущено: США
Продолжительность: ~ 00:42:30
Перевод: Любительский (одноголосый, закадровый) (Юлия Реутова 1-2 Анастасия Снегирева 3 +- HamsterStudio)
Режиссер: Дэвид Петрарка
В ролях: Брук Эллиотт, Маргарет Чо, Эйприл Боулби, Бен Фельдман, Кейт Леверинг, Райан С. Херст, Брук Д`Орсей, Джош Стэмберг, Эшли ЛеКонте Кэмпбелл, Шон Маэр

Описание: Недалекая блондинка и модель Дебби погибает в автокатастрофе. Невероятным образом ее душа переселяется в тело Джейн, которая умирает на операционном столе. В жизни Джейн была успешным адвокатом с несколько нестандартной внешностью. Что там приключилось на небе, непонятно, однако очнувшись в новом теле, Джейн все помнит из своей прошлой жизни, однако теперь она обладает к тому же хорошими адвокатскими знаниями.
Теперь главная героиня должна не только привыкать к новому телу, но и вести скучные, как ей кажется, юридические дела. Невероятным образом ее парень Грейсон Кент (актер Джексон Херст) устраивается на работу в ту же самую юридическую фирму. Он ведь и понятия не имеет, что Дебби не совсем погибла, а переселилась в тело Джейн.

[► Семпл ]

Качество: WEB-DL 720p
Формат: MKV
Видео кодек: AVC
Аудио кодек: AC3
Видео: AVC, 1280 x 718, 23.976 fps, 4120 kbps, 0.187 bit/pixel
Аудио 1: AC3, 48.0 KHz, 6 channels, 384 Kbps (RUS)
Аудио 2: AC3, 48.0 KHz, 6 channels, 384 Kbps (ENG)







Complete name : Drop.Dead.Diva.S05E01.720p.WEB-DL.Rus.Eng-HamsterStudio.mkv
Format : Matroska
Format version : Version 4 / Version 2
File size : 1.48 GiB
Duration : 42mn 29s
Overall bit rate : 4 988 Kbps
Encoded date : UTC 2013-07-19 18:03:03
Writing application : mkvmerge v6.1.0 ('Old Devil') built on Mar 4 2013 09:10:42
Writing library : libebml v1.3.0 + libmatroska v1.4.0
Video #1
ID : 1
Format : AVC
Format/Info : Advanced Video Codec
Format profile : High@L3.1
Format settings, CABAC : No
Format settings, ReFrames : 2 frames
Codec ID : V_MPEG4/ISO/AVC
Duration : 42mn 29s
Bit rate : 4 120 Kbps
Width : 1 280 pixels
Height : 718 pixels
Display aspect ratio : 16:9
Frame rate mode : Constant
Frame rate : 23.976 fps
Color space : YUV
Chroma subsampling : 4:2:0
Bit depth : 8 bits
Scan type : Progressive
Bits/(Pixel*Frame) : 0.187
Stream size : 1.22 GiB (83%)
Language : English
Default : Yes
Forced : No
Color primaries : BT.709
Transfer characteristics : BT.709
Matrix coefficients : BT.709
Audio #2
ID : 2
Format : AC-3
Format/Info : Audio Coding 3
Mode extension : CM (complete main)
Format settings, Endianness : Big
Codec ID : A_AC3
Duration : 42mn 29s
Bit rate mode : Constant
Bit rate : 384 Kbps
Channel(s) : 6 channels
Channel positions : Front: L C R, Side: L R, LFE
Sampling rate : 48.0 KHz
Bit depth : 16 bits
Compression mode : Lossy
Stream size : 117 MiB (8%)
Language : Russian
Default : Yes
Forced : No
Audio #3
ID : 3
Format : AC-3
Format/Info : Audio Coding 3
Mode extension : CM (complete main)
Format settings, Endianness : Big
Codec ID : A_AC3
Duration : 42mn 29s
Bit rate mode : Constant
Bit rate : 384 Kbps
Channel(s) : 6 channels
Channel positions : Front: L C R, Side: L R, LFE
Sampling rate : 48.0 KHz
Bit depth : 16 bits
Compression mode : Lossy
Stream size : 117 MiB (8%)
Language : English
Default : No
Forced : No

Внимание! Раздача ведётся путём добавления новых серий; при каждом добавлении создаётся новый торрент. Чтобы начать докачку новой серии, пользователям необходимо сделать следующее: (1) остановить скачивание, (2) удалить старый торрент у себя из клиента (старые серии удалять не надо), (3) скачать новый торрент и запустить его у себя в клиенте вместо старого, при этом указать клиенту путь в старую папку куда и должно происходить скачивание новых серий.
Ваш клиент при этом должен произвести хеширование (проверку) старой папки (если не производит сам - помогите ему сделать это), и будет докачивать только те серии которых у вас ещё нет. Старые серии при этом не удаляются, а продолжают раздаваться!
Если вы уже удалили старые серии, то предотвратить повторную закачку старых серий можно, отжав галочку в соответствующих местах при запуске нового торрента.



" в пред. сериях не озвучено" 2





   Похожие торренты   Торрент   Размер 
В этой теме нет новых непрочитанных сообщений. До смерти красива / Drop Dead Diva [05x01-08] (2012) HDTVRip | HamsterStudio

27 | 7

3.08 ГБ

В этой теме нет новых непрочитанных сообщений. До смерти красива / Drop Dead Diva [S06] (2014) HDTVRip | HamsterStudio

130 | 51

4.58 ГБ

В этой теме нет новых непрочитанных сообщений. До смерти красива / Drop Dead Diva [06x01-05] (2014) HDTVRip | HamsterStudio

48 | 18

1.66 ГБ

В этой теме нет новых непрочитанных сообщений. До смерти красива / Drop Dead Diva [06x01-02] (2014) HDTVRip | HamsterStudio

212 | 60

661.46 МБ

В этой теме нет новых непрочитанных сообщений. До смерти красива / Drop Dead Diva [06x01-03] (2014) HDTVRip | HamsterStudio

49 | 39

1.01 ГБ

В этой теме нет новых непрочитанных сообщений. До смерти красива / Drop Dead Diva [s03] (2011) WEB-DL 720p

0 | 16

18.32 ГБ

В этой теме нет новых непрочитанных сообщений. До смерти красива / Drop Dead Diva [S01-05] (2009-2013) WEB-DLRip | SET Россия

25 | 249

47.02 ГБ




Вы не можете начинать темы
Вы не можете отвечать на сообщения
Вы не можете редактировать свои сообщения
Вы не можете удалять свои сообщения
Вы не можете добавлять вложения

Перейти:  
 Вход
ppkBB3cker v.2 © 2008-2014 @ PPK
[ Time : 0.043s | 15 Queries | GZIP : Off ]

cron