img image001 image001 image001 image001 image001 image001 image001 image001 image001 image001 image001 image001 image001 image001 image001

Planets Sun Sun Sun
Статистика раздачи
Автор: PriZraK | Размер: 8.21 ГБ | Добавлен: 15 фев 2014
Раздают: 3    Качают: 1
Скачать торрент
Скачать торрент
Описание торрента

СообщениеДобавлено: 15 фев 2014 



Страна: Франция
Производство: Antenne-2, Taurus Film, Techisonor
Жанр: Детектив
Год выпуска: 1978

Продолжительность: 6 х ~ 01:30:00
Перевод: Профессиональный двухголосый
Оригинальная аудиодорожка: Нет

Cубтитры: Нет
Режиссер:Эдуар Молинаро, Клод Барма, Надин Трентиньян, Филип Кондруаэ, Клод Шаброль
В ролях: Симона Синьоре, Дидье Одпен, Франсуа Перро, Мишель Витоль, Жан-Клод Дофен, Морис Гаррель, Рэйчел Уоррен, Жерар Виктор, Бернар Пиво, Филипп Бриго, Жан-Пьер Кастальди, Рауль Кюре, Жермэн Дельба, Жан-Пьер Даррас, Натали Делон, Анна Карина, Морис Роне


Описание: После трагической гибели мужа, Элизабет Массо, бывший адвокат, возобновляет службу, в качестве судебного следователя. Помимо служебных дел, которые ей поручены, она должна решать проблемами в своёй повседневной жизни, с сыном Гийомом и своим свёкром. И хорошо, что она может положиться на секретаря суда, Николая, который помогает ей в её профессиональных расследованиях, и на своего старинном друга, Дероша. Она ведёт дела всегда твердо по закону, но с состраданием к обвиняемым, и всегда сумеет добраться до правды.
Тип релиза: TVRip

Контейнер: AVI
Видео: 640x480 (1.33:1), 25 fps, DivX ~2065 kbps avg, 0.27 bit/pixel
Аудио: 44.100 kHz, 2.0 ~128.00 kbps avg

Семпл

Общее
Полное имя : D:залитьГоспожа следователь1 серия.avi
Формат : AVI
Формат/Информация : Audio Video Interleave
Размер файла : 1,37 Гбайт
Продолжительность : 1 ч. 28 м.
Общий поток : 2204 Кбит/сек
Программа кодирования : VirtualDubMod 1.5.10.2 (build 2540/release)
Библиотека кодирования : VirtualDubMod build 2540/release

Видео
Идентификатор : 0
Формат : MPEG-4 Visual
Параметр BVOP формата : 1
Параметр QPel формата : Нет
Параметр GMC формата : Без точки перехода
Параметр матрицы формата : Default (H.263)
Режим смешивания : Сжатый битовый поток
Идентификатор кодека : DX50
Идентификатор кодека/Подсказка : DivX 5
Продолжительность : 1 ч. 28 м.
Битрейт : 2066 Кбит/сек
Ширина : 640 пикселей
Высота : 480 пикселей
Соотношение сторон : 4:3
Частота кадров : 25,000 кадров/сек
Цветовое пространство : YUV
Субдискретизация насыщенности : 4:2:0
Битовая глубина : 8 бит
Тип развёртки : Прогрессивная
Метод сжатия : С потерями
Бит/(Пиксели*Кадры) : 0.269
Размер потока : 1,28 Гбайт (94%)
Библиотека кодирования : DivX 6.8.5 (UTC 2009-08-20)

Аудио
Идентификатор : 1
Формат : MPEG Audio
Версия формата : Version 1
Профиль формата : Layer 3
Режим : Joint stereo
Расширение режима : MS Stereo
Идентификатор кодека : 55
Идентификатор кодека/Подсказка : MP3
Продолжительность : 1 ч. 28 м.
Вид битрейта : Постоянный
Битрейт : 128 Кбит/сек
Каналы : 2 канала
Частота : 44,1 КГц
Метод сжатия : С потерями
Размер потока : 81,4 Мбайт (6%)
Выравнивание : Разделение по промежуткам
Продолжительность промежутка : 40 мс. (1,00 видеокадр)
Время предзагрузки промежутка : 500 мс.


Автор рипа:



   Похожие торренты   Торрент   Размер 
В этой теме нет новых непрочитанных сообщений. Следователь Файяр по прозвищу Шериф / Le Juge Fayard dit Le Shériff (1976) HDTVRip | Dub

55 | 8

1.42 ГБ

В этой теме нет новых непрочитанных сообщений. Следователь по прозвищу Шериф / Le Juge Fayard dit Le Shériff (1976) VHSRip от Hi-Films

4 | 3

567.47 МБ

В этой теме нет новых непрочитанных сообщений. Госпожа Бовари / Madame Bovary (2014) WEB-DL 720p | L1

200 | 21

3.74 ГБ

В этой теме нет новых непрочитанных сообщений. Госпожа Бовари / Madame Bovary (2014) WEB-DLRip | L1

173 | 8

1.45 ГБ

В этой теме нет новых непрочитанных сообщений. Госпожа Бовари / Madame Bovary (2014) WEB-DLRip | Sub

224 | 28

1.41 ГБ

В этой теме нет новых непрочитанных сообщений. Госпожа Бовари / Madame Bovary (2000) DVDRip | P

0 | 0

1.45 ГБ

В этой теме нет новых непрочитанных сообщений. Госпожа Бовари / Madame Bovary (2014) WEB-DLRip | L1

224 | 13

2.05 ГБ




Вы не можете начинать темы
Вы не можете отвечать на сообщения
Вы не можете редактировать свои сообщения
Вы не можете удалять свои сообщения
Вы не можете добавлять вложения

Перейти:  
Для Мосгорсуда, Роскомнадзора и рекламодателей: mosgorsud-torrent[собачка]yandex.ru
 Вход
ppkBB3cker v.2 © 2008-2014 @ PPK
[ Time : 0.037s | 16 Queries | GZIP : Off ]

cron