img image001 image001 image001 image001 image001 image001 image001 image001 image001 image001 image001 image001 image001 image001 image001

Planets Sun Sun Sun
Статистика раздачи
Автор: PriZraK | Размер: 28.37 ГБ | Добавлен: 15 фев 2014
Раздают: 179    Качают: 57
Скачать торрент
Скачать торрент
Описание торрента

СообщениеДобавлено: 15 фев 2014 


Карточный домик / House of Cards [Season 1] (2013) BDRip 720p
Релиз от GYN

Информация о фильме:
Название: Карточный домик
Оригинальное название: House of Cards
Год выхода: 2013
Жанр: Драма
Режиссёр: Джеймс Фоули / James Foley, Аллен Култер / Allen Coulter, Дэвид Финчер / David Fincher ...
В ролях: Кевин Спейси, Робин Райт, Кейт Мара, Кори Столл, Майкл Келли, Сакина Джэффри, Кристен Коннолли, Рюэл Пендлтон, Нэйтан Дарроу, Сандрин Холт
Сюжет сериала:
Амбициозный конгрессмен от Демократической партии Фрэнк Андервуд в обмен на обещание сделать его госсекретарём помогает Гаррету Уокеру стать президентом США. Однако после выборов глава администрации президента Линда Васкез сообщает Андервуду, что он не получит должность. Взбешенные предательством Фрэнк и его жена готовы пойти на всё, чтобы отомстить новоиспечённому президенту.

Страна: США
Продолжительность: 13 х ~ 00:50:00
Перевод: Русский професcиональный (многоголосый, закадровый / Первый канал)
Субтитры: Отсутствуют
Информация о файле:
Качество: BDRip 720p
Файл: MKV
Кодек: MPEG-4 AVC, H264 codec
Видео: , 2.000:1; 23.976 fps; ~ 5390 kbps; 0.269 bit/pixel
Аудио: 48 kHz, AC3 Dolby Digital, 2.0 (L,R) ch, ~192.00 kbps avg
Размер файла: 13 x 2.18 Gb (6 + 1/2 )
Общий размер: 28.3 Gb

General
Unique ID : 180455760795946463020880605437970662239 (0x87C283ED0579A1D8942E91970EB4C35F)
Complete name : E:House.of.Cards.RUS.BDRip.720p.h264.AC3.-GYNSeason_01House.of.Cards_s01.e01.mkv
Format : Matroska
Format version : Version 4 / Version 2
File size : 2.18 GiB
Duration : 55mn 57s
Overall bit rate mode : Variable
Overall bit rate : 5 585 Kbps
Movie name : House of Cards (2013) Season 1, Episodes 01
Encoded date : UTC 2013-08-03 18:27:11
Writing application : mkvmerge v6.1.0 ('Old Devil') built on Mar 2 2013 14:32:37
Writing library : libebml v1.3.0 + libmatroska v1.4.0
Video
ID : 1
Format : AVC
Format/Info : Advanced Video Codec
Format profile : High@L4.1
Format settings, CABAC : Yes
Format settings, ReFrames : 6 frames
Codec ID : V_MPEG4/ISO/AVC
Duration : 55mn 57s
Bit rate mode : Variable
Bit rate : 5 282 Kbps
Maximum bit rate : 5 390 Kbps
Width : 1 280 pixels
Height : 640 pixels
Display aspect ratio : 2.000
Frame rate : 23.976 fps
Color space : YUV
Chroma subsampling : 4:2:0
Bit depth : 8 bits
Scan type : Progressive
Bits/(Pixel*Frame) : 0.269
Stream size : 2.06 GiB (95%)
Title : Encoded by GYN
Default : Yes
Forced : No
Audio
ID : 2
Format : AC-3
Format/Info : Audio Coding 3
Format profile : Dolby Digital
Mode extension : CM (complete main)
Codec ID : A_AC3
Duration : 55mn 57s
Bit rate mode : Constant
Bit rate : 192 Kbps
Channel(s) : 2 channels
Channel positions : Front: L R
Sampling rate : 48.0 KHz
Bit depth : 16 bits
Compression mode : Lossy
Stream size : 76.8 MiB (3%)
Title : MVO (Первый канал)
Language : Russian
Default : Yes
Forced : No

ПРИЯТНОГО ПРОСМОТРА!



   Похожие торренты   Торрент   Размер 
В этой теме нет новых непрочитанных сообщений. Карточный домик / House of Cards [S01-03] (2013-2015) BDRip 720p | P

478 | 608

77.53 ГБ

В этой теме нет новых непрочитанных сообщений. Карточный домик / House of Cards [S01-02] (2013-2014) BDRip 720p от MediaClub | P | Первый канал

109 | 97

55.64 ГБ

В этой теме нет новых непрочитанных сообщений. Карточный домик / House of Cards [S01] (2013) WEBRip 720p | Первый

501 | 154

18.1 ГБ

В этой теме нет новых непрочитанных сообщений. Карточный домик / House of Cards [01х01-13] (2013) WEBRip 720p

73 | 91

18.1 ГБ

В этой теме нет новых непрочитанных сообщений. Карточный домик / House of Cards [s01: 01-13 из 13] (2013) BDRip от MediaClub | КПК

867 | 148

1.79 ГБ

В этой теме нет новых непрочитанных сообщений. Карточный Домик / House of Cards [S01] (2013) HDTVRip 720p | Первый Канал

1457 | 484

7.21 ГБ

В этой теме нет новых непрочитанных сообщений. OST - Карточный домик / House of Cards (2013) MP3

78 | 10

232.73 МБ




Вы не можете начинать темы
Вы не можете отвечать на сообщения
Вы не можете редактировать свои сообщения
Вы не можете удалять свои сообщения
Вы не можете добавлять вложения

Перейти:  
Для Мосгорсуда, Роскомнадзора и рекламодателей: mosgorsud-torrent[собачка]yandex.ru
 Вход
ppkBB3cker v.2 © 2008-2014 @ PPK
[ Time : 0.052s | 15 Queries | GZIP : Off ]

Торрент трекер RUTOR.IN, Не можете зайти на rutor.org? Какой новый адрес рутор? Какое зеркало рутор? Не работает rutor.org и зеркала? Тогда наш торрент специально для вас. Rutor.in неофициальное зеркало rutor. В случае если у Вас заблокирован rutor или вдруг Вы не можете на него зайти, то Вы без труда сможете скачать бесплатно и без рекламы последние новинки кино, игр, сериалов и прочего у нас, на Rutor.in. Не нужно использовать прокси, чтобы зайти на рутор, достаточно воспользоваться нашим ресурсом. Все новые фильмы, игры, сериалы, книги и музыка за 2013 и 2014 годы через торрент бесплатно. Скачивайте фильмы в хорошем качестве, игры для пк, xbox, playstation без регистрации. У нас вы найдете новые Зарубежные сериалы и Русские сериалы 2013, 2014, 2015 годов. Оставайтесь с нами, качайте любимые фильмы, игры, сериалы, книги и музыку.
cron