img image001 image001 image001 image001 image001 image001 image001 image001 image001 image001 image001 image001 image001 image001 image001

Planets Sun Sun Sun
Статистика раздачи
Автор: PriZraK | Размер: 1.88 ГБ | Добавлен: 15 фев 2014
Раздают: 8    Качают: 3
Скачать торрент
Скачать торрент
Описание торрента

СообщениеДобавлено: 15 фев 2014 




Информация о фильме
Оригинальное название: Шурочка
Год выхода: 2013
Жанр: Комедия
Режиссер: Максим Масальцев, Александр Курняев
В ролях: Наталия Медведева, Александр Поляев, Денис Бузин, Екатерина Долински, Ефим Банчик и другие...

О фильме:
Такой героини вы еще не видели. Мистер Бин в юбке, комик с миллионом лиц. Телеканал «Пятница!» покажет, как быть Шурочкой и не бояться этого. Юмор высокого разрешения. Шурочка - одинокая девушка с открытым и добрым сердцем. Из-за своей чрезмерной искренности она постоянно попадает в смешные и нелепые ситуации. Даже знакомясь с парнем, Шурочка умудряется довести кавалера до истерики, а зрителей до гомерического хохота. И все это без тени пошлости и вульгарности, что для современного телевидения вообще большая редкость. Смотрите на телеканале «Пятница!» невероятно добрый и смешной комедийный сериал «Шурочка»!

Страна: Россия
Студия: ООО "ПРО Продакшн", по заказу ЗАО "Пятница"
Продолжительность: 20 x ~00:21:00
Перевод: Не требуется

Файл
Качество: WEBRip | КПК
Видео: MPEG-4 AVC (x264), 640x360, ~500 kbps, 25.000 fps
Аудио: AAC LC, 48.0 KHz, 2 ch, 128 Kbps
Субтитры: Нет

Семпл


K:киноShurochka.S01.2013.AVC.WEBRip.KPK.GeneralfilmShurochka.s01e11.2013.AVC.WEBRip.KPK.Generalfilm.mp4
Format : MPEG-4
Format profile : Base Media
Codec ID : isom
File size : 95.9 MiB
Duration : 21mn 15s
Overall bit rate mode : Variable
Overall bit rate : 631 Kbps
Encoded date : UTC 2013-10-17 14:51:30
Tagged date : UTC 2013-10-17 14:51:30
Video #1
ID : 1
Format : AVC
Format/Info : Advanced Video Codec
Format profile : Baseline@L4.1
Format settings, CABAC : No
Format settings, ReFrames : 6 frames
Codec ID : avc1
Codec ID/Info : Advanced Video Coding
Duration : 21mn 15s
Bit rate : 500 Kbps
Maximum bit rate : 2 016 Kbps
Width : 640 pixels
Height : 360 pixels
Display aspect ratio : 16:9
Frame rate mode : Constant
Frame rate : 25.000 fps
Color space : YUV
Chroma subsampling : 4:2:0
Bit depth : 8 bits
Scan type : Progressive
Bits/(Pixel*Frame) : 0.087
Stream size : 76.1 MiB (79%)
Writing library : x264 core 125 r2200 999b753
Encoding settings : cabac=0 / ref=6 / deblock=1:-1:-1 / analyse=0x1:0x111 / me=umh / subme=7 / psy=1 / psy_rd=1.00:0.00 / mixed_ref=0 / me_range=16 / chroma_me=1 / trellis=1 / 8x8dct=0 / cqm=0 / deadzone=21,11 / fast_pskip=0 / chroma_qp_offset=-2 / threads=3 / lookahead_threads=1 / sliced_threads=0 / nr=0 / decimate=1 / interlaced=0 / bluray_compat=0 / constrained_intra=0 / bframes=0 / weightp=0 / keyint=250 / keyint_min=25 / scenecut=40 / intra_refresh=0 / rc_lookahead=60 / rc=2pass / mbtree=1 / bitrate=500 / ratetol=1.0 / qcomp=0.60 / qpmin=0 / qpmax=69 / qpstep=4 / cplxblur=20.0 / qblur=0.5 / ip_ratio=1.40 / aq=1:1.00
Encoded date : UTC 2013-10-17 14:51:30
Tagged date : UTC 2013-10-17 14:51:33
Audio #2
ID : 2
Format : AAC
Format/Info : Advanced Audio Codec
Format profile : LC
Codec ID : 40
Duration : 21mn 15s
Bit rate mode : Variable
Bit rate : 128 Kbps
Maximum bit rate : 137 Kbps
Channel(s) : 2 channels
Channel positions : Front: L R
Sampling rate : 48.0 KHz
Compression mode : Lossy
Stream size : 19.5 MiB (20%)
Encoded date : UTC 2013-10-17 14:51:32
Tagged date : UTC 2013-10-17 14:51:33

Релиз от:



   Похожие торренты   Торрент   Размер 
В этой теме нет новых непрочитанных сообщений. Шурочка [S01] (2013) WEBRip

51 | 5

5.65 ГБ

В этой теме нет новых непрочитанных сообщений. Шурочка (1982) DVB от AND03AND

8 | 4

1.72 ГБ

В этой теме нет новых непрочитанных сообщений. Онлайн [01-56 из 56] (2013) WEBRip от Generalfilm

50 | 91

19.17 ГБ

В этой теме нет новых непрочитанных сообщений. Тайны тела [01-16] (2012-2013) WEBRip от Generalfilm

593 | 375

4.67 ГБ

В этой теме нет новых непрочитанных сообщений. Люди мира [01-08] (2012-2013) WEBRip от Generalfilm

65 | 27

1.19 ГБ

В этой теме нет новых непрочитанных сообщений. Хрупкость / Frágiles [S01-02] (2012-2013) WEBRip от Generalfilm | SET Russia

36 | 29

11.21 ГБ

В этой теме нет новых непрочитанных сообщений. Хемлок Гроув / Hemlock Grove [S01] (2013) WEBRip от Generalfilm | КПК

136 | 14

2.95 ГБ




Вы не можете начинать темы
Вы не можете отвечать на сообщения
Вы не можете редактировать свои сообщения
Вы не можете удалять свои сообщения
Вы не можете добавлять вложения

Перейти:  
Для Мосгорсуда, Роскомнадзора и рекламодателей: mosgorsud-torrent[собачка]yandex.ru
 Вход
ppkBB3cker v.2 © 2008-2014 @ PPK
[ Time : 0.027s | 14 Queries | GZIP : Off ]

Торрент трекер RUTOR.IN, Не можете зайти на rutor.org? Какой новый адрес рутор? Какое зеркало рутор? Не работает rutor.org и зеркала? Тогда наш торрент специально для вас. Rutor.in неофициальное зеркало rutor. В случае если у Вас заблокирован rutor или вдруг Вы не можете на него зайти, то Вы без труда сможете скачать бесплатно и без рекламы последние новинки кино, игр, сериалов и прочего у нас, на Rutor.in. Не нужно использовать прокси, чтобы зайти на рутор, достаточно воспользоваться нашим ресурсом. Все новые фильмы, игры, сериалы, книги и музыка за 2013 и 2014 годы через торрент бесплатно. Скачивайте фильмы в хорошем качестве, игры для пк, xbox, playstation без регистрации. У нас вы найдете новые Зарубежные сериалы и Русские сериалы 2013, 2014, 2015 годов. Оставайтесь с нами, качайте любимые фильмы, игры, сериалы, книги и музыку.