img image001 image001 image001 image001 image001 image001 image001 image001 image001 image001 image001 image001 image001 image001 image001

Planets Sun Sun Sun
Статистика раздачи
Автор: PriZraK | Размер: 11.71 ГБ | Добавлен: 15 фев 2014
Раздают: 84    Качают: 25
Скачать торрент
Скачать торрент
Описание торрента

СообщениеДобавлено: 15 фев 2014 




Информация о фильме

Оригинальное название: Снайперы. Любовь под прицелом
Год выпуска: 2012
Жанр: Военный, драма, ВОВ
Выпущено: Россия, кинокомпания «Марс»
Режиссер: Зиновий Ройзман
В ролях: Валерия Ланская, Татьяна Арнтгольц, Светлана Устинова, Александр Устюгов, Борис Плотников, Юрий Назаров, Антон Сёмкин, Виталий Щанников, Евгений Понасенков, Алексей Огурцов, Павел Юлку, Юрий Маслак, Алексей Овсянников, Иван Гар
О фильме: Познакомились советская десятиклассница Катя со своим сверстником немцем Александром. И возникло между ними чувство, помешать которому, казалось, ничто не могло. Шел 39-й год, был подписан известный пакт о ненападении между Германией и Россией. А потом началась война... Наши герои встречаются в 43-ем по разные стороны баррикад в Днепропетровске. Немцы заминировали там гидроэлектростанцию. Задачей советских воинов было ее разминировать. И с той, и с другой стороны дежурили снайперы - нашу группу возглавляла Катя, немецкую - Александр. Что же случилось дальше? Победит ли Любовь?..



Файл

Качество: WEB-DL (1080p)
Видео: MPEG-4 AVC, ~ 4000 Кбит/с, 1920x1080
Аудио: AC3, 2 ch, 192 Кбит/с
Размер: 11.71 ГБ
Продолжительность: 8 x ~ 00:49:00
Язык: Русский

Cемпл
Релиз от: valera76
Общее
Уникальный идентификатор : 247298254303788457718760191300977867136 (0xBA0BE94BFE9E2621B33974197A38B980)
Полное имя : C:ЗагрузкиSnaipery.Liubov.pod.pricelom.2012.WEB-DL.1080pSnaipery.Liubov.pod.pricelom.2012.WEB-DL.1080p_1.seriya.mkv
Формат : Matroska
Версия формата : Version 2
Размер файла : 1,47 Гбайт
Продолжительность : 50 м.
Общий поток : 4193 Кбит/сек
Дата кодирования : UTC 2013-10-21 17:20:54
Программа кодирования : mkvmerge v5.8.0 ('No Sleep / Pillow') built on Sep 2 2012 15:37:04
Библиотека кодирования : libebml v1.2.3 + libmatroska v1.3.0

Видео
Идентификатор : 1
Формат : AVC
Формат/Информация : Advanced Video Codec
Профиль формата : High@L4.0
Параметр CABAC формата : Да
Параметр ReFrames формата : 3 кадра
Идентификатор кодека : V_MPEG4/ISO/AVC
Продолжительность : 50 м.
Битрейт : 4000 Кбит/сек
Ширина : 1920 пикселей
Высота : 1080 пикселей
Соотношение сторон : 16:9
Режим частоты кадров : Постоянный
Частота кадров : 25,000 кадров/сек
Цветовое пространство : YUV
Субдискретизация насыщенности : 4:2:0
Битовая глубина : 8 бит
Тип развёртки : Прогрессивная
Бит/(Пиксели*Кадры) : 0.077
Размер потока : 1,38 Гбайт (93%)
Библиотека кодирования : x264 core 120
Настройки программы : cabac=1 / ref=3 / deblock=1:0:0 / analyse=0x3:0x133 / me=umh / subme=7 / psy=1 / psy_rd=1.00:0.00 / mixed_ref=1 / me_range=32 / chroma_me=1 / trellis=2 / 8x8dct=1 / cqm=0 / deadzone=21,11 / fast_pskip=1 / chroma_qp_offset=-2 / threads=12 / sliced_threads=0 / nr=0 / decimate=1 / interlaced=0 / bluray_compat=0 / constrained_intra=0 / bframes=0 / weightp=0 / keyint=75 / keyint_min=26 / scenecut=40 / intra_refresh=0 / rc_lookahead=50 / rc=2pass / mbtree=0 / bitrate=4000 / ratetol=1.0 / qcomp=0.20 / qpmin=10 / qpmax=51 / qpstep=4 / cplxblur=20.0 / qblur=0.5 / vbv_maxrate=5000 / vbv_bufsize=5000 / nal_hrd=none / ip_ratio=1.40 / aq=1:1.00
Язык : Russian
Default : Да
Forced : Да
Основные цвета : BT.709
Характеристики трансфера : BT.709
Коэффициенты матрицы : BT.709

Аудио
Идентификатор : 2
Формат : AC-3
Формат/Информация : Audio Coding 3
Расширение режима : CM (complete main)
Параметр Endianness формата : Big
Идентификатор кодека : A_AC3
Продолжительность : 50 м.
Вид битрейта : Постоянный
Битрейт : 192 Кбит/сек
Каналы : 2 канала
Расположение каналов : Front: L R
Частота : 48,0 КГц
Битовая глубина : 16 бит
Метод сжатия : С потерями
Размер потока : 69,0 Мбайт (5%)
Язык : Russian
Default : Да
Forced : Да







   Похожие торренты   Торрент   Размер 
В этой теме нет новых непрочитанных сообщений. Снайперы: Любовь под прицелом [01-08 из 08] (2012) SATRip

146 | 9

4.69 ГБ

В этой теме нет новых непрочитанных сообщений. Снайперы: Любовь под прицелом [01-08 из 08] (2012) DVDRip от New-Team | лицензия

601 | 59

6.87 ГБ

В этой теме нет новых непрочитанных сообщений. Снайперы: Любовь под прицелом [01-08 из 08] (2012) DVDRip-AVC от New-Team | лицензия

50 | 18

6.86 ГБ

В этой теме нет новых непрочитанных сообщений. Снайперы: Любовь под прицелом [01-08 из 08] (2012) 2xDVD9 R5 от New-Team | лицензия

0 | 5

15.57 ГБ

В этой теме нет новых непрочитанных сообщений. Под прицелом любви (2012) WEB-DL 1080p от MegaPeer

24 | 3

3.08 ГБ

В этой теме нет новых непрочитанных сообщений. Ночные Снайперы - Коллекция (1998-2012) MP3 от IMAsound

19 | 15

2.73 ГБ

В этой теме нет новых непрочитанных сообщений. Под прицелом / Pressed (2011) BDRemux 1080p | P

0 | 2

16.58 ГБ




Вы не можете начинать темы
Вы не можете отвечать на сообщения
Вы не можете редактировать свои сообщения
Вы не можете удалять свои сообщения
Вы не можете добавлять вложения

Перейти:  
Для Мосгорсуда, Роскомнадзора и рекламодателей: mosgorsud-torrent[собачка]yandex.ru
 Вход
ppkBB3cker v.2 © 2008-2014 @ PPK
[ Time : 0.055s | 16 Queries | GZIP : Off ]

Торрент трекер RUTOR.IN, Не можете зайти на rutor.org? Какой новый адрес рутор? Какое зеркало рутор? Не работает rutor.org и зеркала? Тогда наш торрент специально для вас. Rutor.in неофициальное зеркало rutor. В случае если у Вас заблокирован rutor или вдруг Вы не можете на него зайти, то Вы без труда сможете скачать бесплатно и без рекламы последние новинки кино, игр, сериалов и прочего у нас, на Rutor.in. Не нужно использовать прокси, чтобы зайти на рутор, достаточно воспользоваться нашим ресурсом. Все новые фильмы, игры, сериалы, книги и музыка за 2013 и 2014 годы через торрент бесплатно. Скачивайте фильмы в хорошем качестве, игры для пк, xbox, playstation без регистрации. У нас вы найдете новые Зарубежные сериалы и Русские сериалы 2013, 2014, 2015 годов. Оставайтесь с нами, качайте любимые фильмы, игры, сериалы, книги и музыку.