img image001 image001 image001 image001 image001 image001 image001 image001 image001 image001 image001 image001 image001 image001 image001

Planets Sun Sun Sun
Статистика раздачи
Автор: PriZraK | Размер: 12.09 ГБ | Добавлен: 15 фев 2014
Раздают: 42    Качают: 20
Скачать торрент
Скачать торрент
Описание торрента

СообщениеДобавлено: 15 фев 2014 


Год выпуска: 2010
Страна: Россия
Студия: Pro-TV
Жанр: военный
Продолжительность: ~ 00:44:00 / серия

Перевод: не требуется
Субтитры: нет
Оригинальная аудиодорожка: русский

Режиссер: Валерий Шалыга

В ролях: Александр Пашков, Йоханес Габриель, Ольга Олексий, Кирилл Жандаров, Валентина Лосовская, Сергей Романюк, Игорь Денисов, Александр Гиренок, Дарья Баранова, Катожина Завадска...

Описание: Ранняя весна 1942 года. В лесу пережил зиму партизанский отряд Григория. Их осталось очень мало: сам Григорий, Муха, несколько мужиков из деревни, несколько красноармейцев. Мало мужчин, но много женщин, детей и стариков. Они не могут вернуться в деревню. В округе свирепствуют каратели — эсесовцы и латышские полицаи. Поэтому выжить они могут только в лесу. Григорий живет с Дашей, а Алена — в одиночестве. Она замкнулась в себе, ведь в жизни у нее сломано все — муж оказался с другой, а тот, кого полюбила — оказался предателем…





Качество: DVDRip (4 x DVD9 R5)
Формат: AVI

Видео: 720x400 (16:9), 25.000 fps, XViD ~ 2000 kbps avg, 0.277 bit/pixel
Аудио: 48 kHz, АС3 6 ch, 448 kbps, русский

Раздача от:
Общее
Полное имя : 1942.2011.O.DVDRip_[Youtracker]_by_avproh1.avi
Формат : AVI
Формат/Информация : Audio Video Interleave
Размер файла : 777 Мбайт
Продолжительность : 44 м.
Общий поток : 2455 Кбит/сек
Программа кодирования : VirtualDubMod 1.5.10.3 | www.virtualdub-fr.org || (build 2550/release)
Библиотека кодирования : VirtualDubMod build 2550/release

Видео
Идентификатор : 0
Формат : MPEG-4 Visual
Профиль формата : Advanced Simple@L5
Параметр BVOP формата : 1
Параметр QPel формата : Нет
Параметр GMC формата : Без точки перехода
Параметр матрицы формата : Выборочная
Идентификатор кодека : XVID
Идентификатор кодека/Подсказка : XviD
Продолжительность : 44 м.
Битрейт : 1997 Кбит/сек
Ширина : 720 пикселей
Высота : 400 пикселей
Соотношение сторон : 16:9
Частота кадров : 25,000 кадров/сек
Цветовое пространство : YUV
Субдискретизация насыщенности : 4:2:0
Битовая глубина : 8 бит
Тип развёртки : Прогрессивная
Метод сжатия : С потерями
Бит/(Пиксели*Кадры) : 0.277
Размер потока : 632 Мбайт (81%)
Библиотека кодирования : XviD 73

Аудио
Идентификатор : 1
Формат : AC-3
Формат/Информация : Audio Coding 3
Расширение режима : CM (complete main)
Параметр Endianness формата : Big
Идентификатор кодека : 2000
Продолжительность : 44 м.
Вид битрейта : Постоянный
Битрейт : 448 Кбит/сек
Каналы : 6 каналов
Расположение каналов : Front: L C R, Side: L R, LFE
Частота : 48,0 КГц
Битовая глубина : 16 бит
Метод сжатия : С потерями
Размер потока : 142 Мбайт (18%)
Выравнивание : Разделение по промежуткам
Продолжительность промежутка : 40 мс. (1,00 видеокадр)
Время предзагрузки промежутка : 500 мс.






   Похожие торренты   Торрент   Размер 
В этой теме нет новых непрочитанных сообщений. 1942 [01-16 из 16] (2010) DVDRip-AVC от New-Team | лицензия

8 | 6

12.09 ГБ

В этой теме нет новых непрочитанных сообщений. 1942 [01-16 из 16] (2010) 4xDVD9 R5 от New-Team | лицензия

0 | 6

28.59 ГБ

В этой теме нет новых непрочитанных сообщений. Вспоминая 1942 / Yi jiu si er (2012) DVD9 от New-Team | Лицензия

45 | 28

7.42 ГБ

В этой теме нет новых непрочитанных сообщений. Вспоминая 1942 / Back To 1942 / Yi jiu si er (2012) HDRip | А, Лицензия

23 | 14

2.93 ГБ

В этой теме нет новых непрочитанных сообщений. Непобедимые (1942) DVDRip-AVC от New-Team

23 | 11

1.46 ГБ

В этой теме нет новых непрочитанных сообщений. Котовский (1942) DVDRip от New-Team

73 | 24

745.4 МБ

В этой теме нет новых непрочитанных сообщений. Бой под Соколом (1942) DVDRip от New-Team

10 | 6

744.55 МБ




Вы не можете начинать темы
Вы не можете отвечать на сообщения
Вы не можете редактировать свои сообщения
Вы не можете удалять свои сообщения
Вы не можете добавлять вложения

Перейти:  
Для Мосгорсуда, Роскомнадзора и рекламодателей: mosgorsud-torrent[собачка]yandex.ru
 Вход
ppkBB3cker v.2 © 2008-2014 @ PPK
[ Time : 0.063s | 16 Queries | GZIP : Off ]

cron