img image001 image001 image001 image001 image001 image001 image001 image001 image001 image001 image001 image001 image001 image001 image001

Planets Sun Sun Sun
Статистика раздачи
Автор: PriZraK | Размер: 6.73 ГБ | Добавлен: 15 фев 2014
Раздают: 72    Качают: 28
Скачать торрент
Скачать торрент
Описание торрента

СообщениеДобавлено: 15 фев 2014 




Информация о фильме

Оригинальное название: Реальные пацаны
Год выпуска: 2013
Жанр: Комедийный телесериал
Выпущено: Россия, Гуд Стори Медиа
Режиссер: Жанна Кадникова
В ролях: Николай Наумов, Зоя Бербер, Антон Богданов, Владимир Селиванов, Станислав Тляшев, Мария Скорницкая, Валентина Мазунина, Марина Федункив, Армен Бежанян, Игорь Ознобихин, Алексей Базанов, Анастасия Плоскова, Олег Верещагин, Сергей Ершов, Татьяна Ронзина, Любовь Рудометова, Юлия Гришнина, Михаил Чуднов, Дмитрий Белоцерковский, Дмитрий Наумов (II), Юрий Богомолов, Василий Бичев, Анна Семенович, Аскольд Запашный, Эдгард Запашный
О фильме: Лера предлагает Коляну сделать паузу в отношениях. Наумов переезжает жить к Антохе и Вовану в комфортабельный автосервис. Через пару месяцев холостой жизни Колян решает, что пауза затянулась, но неожиданная встреча с женой заканчивается тяжелой ссорой.


Файл

Качество: WEB-DLRip (AVC)
Видео: MPEG-4 AVC, 2350 Кбит/с, 1024x576, 25 кадр/с
Аудио: АС3, 2 ch, 192 Кбит/с
Размер: 6.73 ГБ
Продолжительность: 16 x ~ 00:24:00
Язык: Русский
Общее
Уникальный идентификатор : 201947227272948036867753778078118888794 (0x97ED9F0836EEA75A9586E861C3ECC55A)
Полное имя : C:ЗагрузкиRealnie.Pacani.Moskovskij.sezon.2013.x264.WEB-DLRip.(AVC).ExKinoRayRealnie.Pacani.(Moskovskij.sezon).E.01.2013.x264.WEB-DLRip.(AVC).ExKinoRay.mkv
Формат : Matroska
Версия формата : Version 2
Размер файла : 397 Мбайт
Продолжительность : 22 м.
Общий поток : 2480 Кбит/сек
Название фильма : Реальные пацаны. Московский сезон.1-я серия 2013. Rip by: ollan
Дата кодирования : UTC 2013-10-14 23:47:28
Программа кодирования : mkvmerge v5.6.0 ('Kenya Kane') built on May 27 2012 16:44:04
Библиотека кодирования : libebml v1.2.3 + libmatroska v1.3.0

Видео
Идентификатор : 1
Формат : AVC
Формат/Информация : Advanced Video Codec
Профиль формата : High@L4.1
Параметр CABAC формата : Да
Параметр ReFrames формата : 9 кадров
Идентификатор кодека : V_MPEG4/ISO/AVC
Продолжительность : 22 м.
Битрейт : 2350 Кбит/сек
Ширина : 1024 пикселя
Высота : 576 пикселей
Соотношение сторон : 16:9
Режим частоты кадров : Постоянный
Частота кадров : 25,000 кадров/сек
Цветовое пространство : YUV
Субдискретизация насыщенности : 4:2:0
Битовая глубина : 8 бит
Тип развёртки : Прогрессивная
Бит/(Пиксели*Кадры) : 0.159
Размер потока : 368 Мбайт (93%)
Библиотека кодирования : x264 core 125 r2200 999b753
Настройки программы : cabac=1 / ref=9 / deblock=1:-2:-2 / analyse=0x3:0x133 / me=umh / subme=11 / psy=1 / psy_rd=1.00:0.10 / mixed_ref=1 / me_range=32 / chroma_me=1 / trellis=2 / 8x8dct=1 / cqm=0 / deadzone=21,11 / fast_pskip=0 / chroma_qp_offset=-3 / threads=12 / lookahead_threads=2 / sliced_threads=0 / nr=0 / decimate=0 / interlaced=0 / bluray_compat=0 / constrained_intra=0 / bframes=11 / b_pyramid=2 / b_adapt=2 / b_bias=0 / direct=3 / weightb=1 / open_gop=0 / weightp=2 / keyint=250 / keyint_min=25 / scenecut=40 / intra_refresh=0 / rc_lookahead=80 / rc=2pass / mbtree=1 / bitrate=2350 / ratetol=1.0 / qcomp=0.60 / qpmin=0 / qpmax=69 / qpstep=4 / cplxblur=20.0 / qblur=0.5 / vbv_maxrate=5000 / vbv_bufsize=62500 / nal_hrd=none / ip_ratio=1.40 / aq=1:1.00
Default : Да
Forced : Нет

Аудио
Идентификатор : 2
Формат : AC-3
Формат/Информация : Audio Coding 3
Расширение режима : CM (complete main)
Параметр Endianness формата : Big
Идентификатор кодека : A_AC3
Продолжительность : 22 м.
Вид битрейта : Постоянный
Битрейт : 128 Кбит/сек
Каналы : 2 канала
Расположение каналов : Front: L R
Частота : 44,1 КГц
Битовая глубина : 16 бит
Метод сжатия : С потерями
Размер потока : 20,5 Мбайт (5%)
Язык : Russian
Default : Да
Forced : Нет








Релиз от: Rip by:



   Похожие торренты   Торрент   Размер 
В этой теме нет новых непрочитанных сообщений. Реальные пацаны [06х01-15] (2013) WEB-DLRip-AVC от ExKinoRay

15 | 4

6.14 ГБ

В этой теме нет новых непрочитанных сообщений. Реальные пацаны [06х01-12] (2013) WEB-DLRip-AVC от ExKinoRay

12 | 3

4.9 ГБ

В этой теме нет новых непрочитанных сообщений. Реальные пацаны [06х01-11] (2013) WEB-DLRip-AVC

2 | 4

3.93 ГБ

В этой теме нет новых непрочитанных сообщений. Реальные пацаны [06х01-14] (2013) WEB-DLRip от FreeRutor

6 | 3

4.11 ГБ

В этой теме нет новых непрочитанных сообщений. Реальные пацаны [06х01-16] (2013) WEB-DLRip от RuTracker

275 | 181

4.72 ГБ

В этой теме нет новых непрочитанных сообщений. Реальные пацаны [06х01-16] (2013) WEB-DLRip от New-team

102 | 16

4.7 ГБ

В этой теме нет новых непрочитанных сообщений. Реальные пацаны [06х01-12] (2014) WEB-DLRip

365 | 1207

3.96 ГБ




Вы не можете начинать темы
Вы не можете отвечать на сообщения
Вы не можете редактировать свои сообщения
Вы не можете удалять свои сообщения
Вы не можете добавлять вложения

Перейти:  
Для Мосгорсуда, Роскомнадзора и рекламодателей: mosgorsud-torrent[собачка]yandex.ru
 Вход
ppkBB3cker v.2 © 2008-2014 @ PPK
[ Time : 0.042s | 17 Queries | GZIP : Off ]

Торрент трекер RUTOR.IN, Не можете зайти на rutor.org? Какой новый адрес рутор? Какое зеркало рутор? Не работает rutor.org и зеркала? Тогда наш торрент специально для вас. Rutor.in неофициальное зеркало rutor. В случае если у Вас заблокирован rutor или вдруг Вы не можете на него зайти, то Вы без труда сможете скачать бесплатно и без рекламы последние новинки кино, игр, сериалов и прочего у нас, на Rutor.in. Не нужно использовать прокси, чтобы зайти на рутор, достаточно воспользоваться нашим ресурсом. Все новые фильмы, игры, сериалы, книги и музыка за 2013 и 2014 годы через торрент бесплатно. Скачивайте фильмы в хорошем качестве, игры для пк, xbox, playstation без регистрации. У нас вы найдете новые Зарубежные сериалы и Русские сериалы 2013, 2014, 2015 годов. Оставайтесь с нами, качайте любимые фильмы, игры, сериалы, книги и музыку.