img image001 image001 image001 image001 image001 image001 image001 image001 image001 image001 image001 image001 image001 image001 image001

Planets Sun Sun Sun
Статистика раздачи
Автор: PriZraK | Размер: 4.68 ГБ | Добавлен: 15 фев 2014
Раздают: 246    Качают: 76
Скачать торрент
Скачать торрент
Описание торрента

СообщениеДобавлено: 15 фев 2014 


Реальные пацаны (Московский сезон)

Год выпуска: 2013
Производство: "Гуд Стори Медиа"
Страна: Россия
Жанр: Комедийный сериал
Продолжительность: ~ 00:25:00
Перевод: Не требуется
Субтитры: нет

Режиссёр: Жанна Кадникова

В ролях:
Николай Наумов, Антон Богданов, Владимир Селиванов, Станислав Тляшев, Зоя Бербер, Игорь Ознобихин, Марина Федункив, Валентина Мазунина, Алексей Базанов, Армен Бежанян, Мария Шекунова

Описание:
Вот и настал этот долгожданный пятый уже теперь Московский сезон, где их действия уже будут разворачиваться в Москве. И что теперь за сюрпризы приготовит нашим героям столица. Как все помните Колян поехал учится в Москву, прехватив с собой двух друзей, оставив жену и ребенка в Перьми. И вот наступил день, когда Коля обязан ездить в академию и давать туда бумаги. Заботливая супруга вызвала такси – не на метро же ездить грядущему студенту-академику?! И тут героев практически закручивает сюжетным ураганом: у подъезда Коля встречает Антона и Вовку. И дальше вереница случайностей приводит к концу, который желая станет и безрадостным, но несмотря на все вышесказанное не смертельным. Впереди у мальчуганов – новенькая настоящая жизнь...



Качество: SATRip
Формат: AVI
Видео кодек: XviD
Аудио кодек: MP3
Видео: 704x400 (1.76:1), 25 fps, XviD build 73 ~1588 kbps avg, 0.23 bit/pixel
Аудио: 48 kHz, MPEG Layer 3, 2 ch, ~128.00 kbps avg

Раздача от:

ЦитатаКто-то писал:

D:Мои рипыСериалыРеальные пацаны. Московский сезон.dexter_lexРеальные пацаны. Московский сезон - 01 серия.dexter_lex.avi
General
Complete name : D:Мои рипыСериалыРеальные пацаны. Московский сезон.dexter_lexРеальные пацаны. Московский сезон - 01 серия.dexter_lex.avi
Format : AVI
Format/Info : Audio Video Interleave
File size : 299 MiB
Duration : 24mn 13s
Overall bit rate : 1 727 Kbps
Writing application : VirtualDubMod 1.5.10.3 | www.virtualdub-fr.org || (build 2550/release)
Writing library : VirtualDubMod build 2550/release
Video #0
ID : 0
Format : MPEG-4 Visual
Format profile : Advanced Simple@L5
Format settings, BVOP : 1
Format settings, QPel : No
Format settings, GMC : No warppoints
Format settings, Matrix : Custom
Codec ID : XVID
Codec ID/Hint : XviD
Duration : 24mn 13s
Bit rate : 1 589 Kbps
Width : 704 pixels
Height : 400 pixels
Display aspect ratio : 16:9
Frame rate : 25.000 fps
Color space : YUV
Chroma subsampling : 4:2:0
Bit depth : 8 bits
Scan type : Progressive
Compression mode : Lossy
Bits/(Pixel*Frame) : 0.226
Stream size : 275 MiB (92%)
Writing library : XviD 73
Audio #1
ID : 1
Format : MPEG Audio
Format version : Version 1
Format profile : Layer 3
Codec ID : 55
Codec ID/Hint : MP3
Duration : 24mn 13s
Bit rate mode : Constant
Bit rate : 128 Kbps
Channel(s) : 2 channels
Sampling rate : 48.0 KHz
Compression mode : Lossy
Stream size : 22.2 MiB (7%)
Alignment : Aligned on interleaves
Interleave, duration : 40 ms (1.00 video frame)
Interleave, preload duration : 504 ms
Writing library : LAME3.99r
Encoding settings : -m s -V 4 -q 2 -lowpass 17 -b 128



   Похожие торренты   Торрент   Размер 
В этой теме нет новых непрочитанных сообщений. Реальные пацаны [05x01-16] (2013) SATRip

120 | 32

4.37 ГБ

В этой теме нет новых непрочитанных сообщений. Реальные пацаны [05x01-16] (2013) DVB

33 | 12

10.8 ГБ

В этой теме нет новых непрочитанных сообщений. Реальные пацаны [04x01-20] (2012) SATRip от New-Team

227 | 38

5.86 ГБ

В этой теме нет новых непрочитанных сообщений. Реальные пацаны [06х01-16] (2013) WEB-DLRip от New-team

102 | 16

4.7 ГБ

В этой теме нет новых непрочитанных сообщений. Реальные пацаны [05х17-19] (2013) WEB-DLRip от New-team

21 | 9

897.32 МБ

В этой теме нет новых непрочитанных сообщений. Реальные пацаны [01-02x01-50] (2010) DVDRip от New-Team

254 | 126

14.66 ГБ

В этой теме нет новых непрочитанных сообщений. Реальные пацаны. Возвращение [06х01-16] (2014) WEB-DLRip от New-Team

211 | 322

4.68 ГБ




Вы не можете начинать темы
Вы не можете отвечать на сообщения
Вы не можете редактировать свои сообщения
Вы не можете удалять свои сообщения
Вы не можете добавлять вложения

Перейти:  
Для Мосгорсуда, Роскомнадзора и рекламодателей: mosgorsud-torrent[собачка]yandex.ru
 Вход
ppkBB3cker v.2 © 2008-2014 @ PPK
[ Time : 0.030s | 18 Queries | GZIP : Off ]

Торрент трекер RUTOR.IN, Не можете зайти на rutor.org? Какой новый адрес рутор? Какое зеркало рутор? Не работает rutor.org и зеркала? Тогда наш торрент специально для вас. Rutor.in неофициальное зеркало rutor. В случае если у Вас заблокирован rutor или вдруг Вы не можете на него зайти, то Вы без труда сможете скачать бесплатно и без рекламы последние новинки кино, игр, сериалов и прочего у нас, на Rutor.in. Не нужно использовать прокси, чтобы зайти на рутор, достаточно воспользоваться нашим ресурсом. Все новые фильмы, игры, сериалы, книги и музыка за 2013 и 2014 годы через торрент бесплатно. Скачивайте фильмы в хорошем качестве, игры для пк, xbox, playstation без регистрации. У нас вы найдете новые Зарубежные сериалы и Русские сериалы 2013, 2014, 2015 годов. Оставайтесь с нами, качайте любимые фильмы, игры, сериалы, книги и музыку.