img image001 image001 image001 image001 image001 image001 image001 image001 image001 image001 image001 image001 image001 image001 image001

Planets Sun Sun Sun
Статистика раздачи
Автор: PriZraK | Размер: 27.73 ГБ | Добавлен: 15 фев 2014
Раздают: 2    Качают: 10
Скачать торрент
Скачать торрент
Описание торрента

СообщениеДобавлено: 15 фев 2014 




Информация о фильме
Название: Условия контракта 2
Год выхода: 2013
Жанр: Мелодрама
Режиссер: Олег Массарыгин
В ролях: Елена Великанова, Кирилл Сафонов, Наталья Рудова, Валентина Панина, Любовь Тихомирова, Максим Литовченко, Юлия Шиферштейн, Александр Андриенко, Галина Гусева, Артём Осипов, Юрий Сазонов, Александр Фарбер, Алексей Фатеев, Людмила Титова, Андрей Сорока, Ксения Непотребная, Марина Блейк, Мария Болтнева, Юрий Грубник, Андрей Межулис, Сергей Тезов, Елена Карпович, Мария Букнис, Наталия Селиверстова (II), Татьяна Пискарёва, Сергей Бачурский, Ксения Энтелис, Олег Осипов (II)

О фильме:
Это история главных героев сериала Марии и Олега, которые отмечают годовщину свадьбы. Большой загородный дом, заботливый муж, подрастающая дочка – кажется, теперь у Маши есть всё, о чем только можно мечтать. Однако праздник превращается в ссору – между супругами за этот год накопилось множество неразрешенных проблем. Они все больше отдаляются друг от друга…
Страна: Россия
Студия: ЗАО "АРТЛАЙН"
Продолжительность: ~00:48:00
Файл
Кодек: H.264
Качество: HDTV 1080i
Видео: 1920x1080, 25fps, ~ 9 Мбит/сек, 0.175 bit/pixel
Звук: 48000 Гц, 2ch, 384 Кбит/сек

Семпл

Общее
General
ID : 1 (0x1)
Complete name : D:ВидеоУсловия контракта 2 (1080i)1.ts
Format : MPEG-TS
File size : 3.14 GiB
Duration : 47mn 38s
Overall bit rate mode : Variable
Overall bit rate : 9 448 Kbps
Video
ID : 305 (0x131)
Menu ID : 1 (0x1)
Format : AVC
Format/Info : Advanced Video Codec
Format profile : High@L4.0
Format settings, CABAC : Yes
Format settings, ReFrames : 3 frames
Format settings, GOP : M=4, N=28
Codec ID : 27
Duration : 47mn 38s
Bit rate : 8 593 Kbps
Width : 1 920 pixels
Height : 1 080 pixels
Display aspect ratio : 16:9
Frame rate : 25.000 fps
Standard : Component
Color space : YUV
Chroma subsampling : 4:2:0
Bit depth : 8 bits
Scan type : Interlaced
Scan order : Top Field First
Bits/(Pixel*Frame) : 0.166
Stream size : 2.86 GiB (91%)
Color primaries : BT.709
Transfer characteristics : BT.709
Matrix coefficients : BT.709
Audio
ID : 415 (0x19F)
Menu ID : 1 (0x1)
Format : AC-3
Format/Info : Audio Coding 3
Mode extension : CM (complete main)
Format settings, Endianness : Big
Codec ID : 6
Duration : 47mn 38s
Bit rate mode : Constant
Bit rate : 384 Kbps
Channel count : 2 channels
Channel positions : Front: L R
Sampling rate : 48.0 KHz
Bit depth : 16 bits
Compression mode : Lossy
Stream size : 131 MiB (4%)
Language : Russian




   Похожие торренты   Торрент   Размер 
В этой теме нет новых непрочитанных сообщений. Условия контракта - 2 [01-08 из 08] (2012) DVB от Files-x

12 | 1

12.92 ГБ

В этой теме нет новых непрочитанных сообщений. Условия контракта - 2 [01-04 из 08] (2012) HDTVRip от Files-x

8 | 4

2.35 ГБ

В этой теме нет новых непрочитанных сообщений. Условия контракта - 2 [01-08 из 08] (2012) SATRip от Files-x

161 | 28

4.43 ГБ

В этой теме нет новых непрочитанных сообщений. Условия контракта [01-09 из 09] (2011) DVDRip от КинозалSAT

129 | 23

4.4 ГБ

В этой теме нет новых непрочитанных сообщений. Условия контракта - 2 [01-08 из 08] (2012) HDTVRip 720p

198 | 30

5.13 ГБ

В этой теме нет новых непрочитанных сообщений. Риск без контракта (1992) DVDRip

115 | 14

699.63 МБ

В этой теме нет новых непрочитанных сообщений. Сектор Зеро / Section zéro [01-04 из 8] (2016) HDTV 1080i HDTV 1080i от MediaClub | P

10 | 3

9.5 ГБ




Вы не можете начинать темы
Вы не можете отвечать на сообщения
Вы не можете редактировать свои сообщения
Вы не можете удалять свои сообщения
Вы не можете добавлять вложения

Перейти:  
Для Мосгорсуда, Роскомнадзора и рекламодателей: mosgorsud-torrent[собачка]yandex.ru
 Вход
ppkBB3cker v.2 © 2008-2014 @ PPK
[ Time : 0.026s | 16 Queries | GZIP : Off ]

Торрент трекер RUTOR.IN, Не можете зайти на rutor.org? Какой новый адрес рутор? Какое зеркало рутор? Не работает rutor.org и зеркала? Тогда наш торрент специально для вас. Rutor.in неофициальное зеркало rutor. В случае если у Вас заблокирован rutor или вдруг Вы не можете на него зайти, то Вы без труда сможете скачать бесплатно и без рекламы последние новинки кино, игр, сериалов и прочего у нас, на Rutor.in. Не нужно использовать прокси, чтобы зайти на рутор, достаточно воспользоваться нашим ресурсом. Все новые фильмы, игры, сериалы, книги и музыка за 2013 и 2014 годы через торрент бесплатно. Скачивайте фильмы в хорошем качестве, игры для пк, xbox, playstation без регистрации. У нас вы найдете новые Зарубежные сериалы и Русские сериалы 2013, 2014, 2015 годов. Оставайтесь с нами, качайте любимые фильмы, игры, сериалы, книги и музыку.