img image001 image001 image001 image001 image001 image001 image001 image001 image001 image001 image001 image001 image001 image001 image001

Planets Sun Sun Sun
Статистика раздачи
Автор: PriZraK | Размер: 3.2 ГБ | Добавлен: 15 фев 2014
Раздают: 0    Качают: 6
Скачать торрент
Скачать торрент
Описание торрента

СообщениеДобавлено: 15 фев 2014 



Страна: США
Производство: Highgate Pictures
Жанр: Триллер
Год выпуска: 1983
Продолжительность: 2 х ~ 01:44:00
Перевод: Профессиональный многоголосый
Оригинальная аудиодорожка: Английская
Cубтитры: Нет
Режиссер: Джерри Лондон

В ролях: Чарлтон Хестон, Кит Кэрредин, Стивен Коллинз, Брэд Дэвис, Тесс Харпер,Паула Келли, Уэйн Роджерс, Пол Сорвино, Виктория Теннант, Билли Ди Уильямс, Лейн Смит, Дэнни Гловер

Описание: История нескольких поколений шерифов маленького, но неспокойного городка на юге США, в котором защитники правопорядка не всегда борются со злом, а порою безнаказанно творят его сами. И в это же время безжалостный маньяк вот уже несколько десятков лет совершает жестокие, извращенные преступления. Кому же из шерифов будет суждено отыскать убийцу?!

Исходник: DVD9 R5
Тип релиза: DVDRip
Контейнер: AVI
Видео: 688x528 (1.30:1), 23.976 fps, XviD ~1576 kbps avg, 0.18 bit/pixel
Аудио: #1: 48 kHz, AC3 6.0 ~448.00 kbps avg (RUS)
Аудио: #2: 48 kHz, AC3 2.0 ~192.00 kbps avg (ENG)

Общее
Полное имя : D:1АААШерифы1 серия.avi
Формат : AVI
Формат/Информация : Audio Video Interleave
Размер файла : 1,52 Гбайт
Продолжительность : 1 ч. 37 м.
Общий поток : 2232 Кбит/сек
Программа кодирования : VirtualDubMod 1.5.10.2 (build 2540/release)
Библиотека кодирования : VirtualDubMod build 2540/release

Видео
Идентификатор : 0
Формат : MPEG-4 Visual
Профиль формата : Advanced Simple@L5
Параметр BVOP формата : 2
Параметр QPel формата : Нет
Параметр GMC формата : Без точки перехода
Параметр матрицы формата : Default (MPEG)
Режим смешивания : Сжатый битовый поток
Идентификатор кодека : XVID
Идентификатор кодека/Подсказка : XviD
Продолжительность : 1 ч. 37 м.
Битрейт : 1578 Кбит/сек
Ширина : 688 пикселей
Высота : 528 пикселей
Соотношение сторон : 4:3
Частота кадров : 23,976 кадра/сек
Цветовое пространство : YUV
Субдискретизация насыщенности : 4:2:0
Битовая глубина : 8 бит
Тип развёртки : Прогрессивная
Метод сжатия : С потерями
Бит/(Пиксели*Кадры) : 0.181
Размер потока : 1,08 Гбайт (71%)
Библиотека кодирования : XviD 1.2.1 (UTC 2008-12-04)

Аудио #1
Идентификатор : 1
Формат : AC-3
Формат/Информация : Audio Coding 3
Расширение режима : CM (complete main)
Параметр Endianness формата : Big
Идентификатор кодека : 2000
Продолжительность : 1 ч. 37 м.
Вид битрейта : Постоянный
Битрейт : 448 Кбит/сек
Каналы : 6 каналов
Расположение каналов : Front: L C R, Side: L R, LFE
Частота : 48,0 КГц
Битовая глубина : 16 бит
Метод сжатия : С потерями
Задержка видео : 18 мс.
Размер потока : 313 Мбайт (20%)
Выравнивание : Разделение по промежуткам
Продолжительность промежутка : 42 мс. (1,00 видеокадр)
Время предзагрузки промежутка : 500 мс.

Аудио #2
Идентификатор : 2
Формат : AC-3
Формат/Информация : Audio Coding 3
Расширение режима : CM (complete main)
Параметр Endianness формата : Big
Идентификатор кодека : 2000
Продолжительность : 1 ч. 37 м.
Вид битрейта : Постоянный
Битрейт : 192 Кбит/сек
Каналы : 2 канала
Расположение каналов : Front: L R
Частота : 48,0 КГц
Битовая глубина : 16 бит
Метод сжатия : С потерями
Задержка видео : 18 мс.
Размер потока : 134 Мбайт (9%)
Выравнивание : Разделение по промежуткам
Продолжительность промежутка : 42 мс. (1,00 видеокадр)
Время предзагрузки промежутка : 500 мс.





Релиз группа:

Автор рипа:



   Похожие торренты   Торрент   Размер 
В этой теме нет новых непрочитанных сообщений. Эврика / Eureka (1983) DVDRip от NovaLan

4 | 10

2.06 ГБ

В этой теме нет новых непрочитанных сообщений. Убийственное лето / L'été meurtrier (1983) DVDRip от NovaLan

27 | 10

2.06 ГБ

В этой теме нет новых непрочитанных сообщений. Почетный консул / The Honorary Consul (1983) DVDRip от NovaLan | A

6 | 1

1.46 ГБ

В этой теме нет новых непрочитанных сообщений. Легкие деньги / Easy Money (1983) DVDRip от NovaLan

25 | 11

1.71 ГБ

В этой теме нет новых непрочитанных сообщений. Ты, проклятая жизнь / Te rongyos élet (Oh, Bloody Life) (1983) DVDRip от NovaLan

1 | 3

1.7 ГБ

В этой теме нет новых непрочитанных сообщений. Никогда не говори «никогда» / Never Say Never Again (1983) DVDRip от NovaLan

22 | 3

2.95 ГБ

В этой теме нет новых непрочитанных сообщений. Под огнем / Under Fire (1983) DVD9 от NovaLan

0 | 3

7.82 ГБ




Вы не можете начинать темы
Вы не можете отвечать на сообщения
Вы не можете редактировать свои сообщения
Вы не можете удалять свои сообщения
Вы не можете добавлять вложения

Перейти:  
Для Мосгорсуда, Роскомнадзора и рекламодателей: mosgorsud-torrent[собачка]yandex.ru
 Вход
ppkBB3cker v.2 © 2008-2014 @ PPK
[ Time : 0.623s | 15 Queries | GZIP : Off ]

Торрент трекер RUTOR.IN, Не можете зайти на rutor.org? Какой новый адрес рутор? Какое зеркало рутор? Не работает rutor.org и зеркала? Тогда наш торрент специально для вас. Rutor.in неофициальное зеркало rutor. В случае если у Вас заблокирован rutor или вдруг Вы не можете на него зайти, то Вы без труда сможете скачать бесплатно и без рекламы последние новинки кино, игр, сериалов и прочего у нас, на Rutor.in. Не нужно использовать прокси, чтобы зайти на рутор, достаточно воспользоваться нашим ресурсом. Все новые фильмы, игры, сериалы, книги и музыка за 2013 и 2014 годы через торрент бесплатно. Скачивайте фильмы в хорошем качестве, игры для пк, xbox, playstation без регистрации. У нас вы найдете новые Зарубежные сериалы и Русские сериалы 2013, 2014, 2015 годов. Оставайтесь с нами, качайте любимые фильмы, игры, сериалы, книги и музыку.