img image001 image001 image001 image001 image001 image001 image001 image001 image001 image001 image001 image001 image001 image001 image001

Planets Sun Sun Sun
Статистика раздачи
Автор: PriZraK | Размер: 3.14 ГБ | Добавлен: 15 фев 2014
Раздают: 61    Качают: 10
Скачать торрент
Скачать торрент
Описание торрента

СообщениеДобавлено: 15 фев 2014 


«Что делать, если тебя не берут на работу твоей мечты только из-за того, что ты женщина?»



Страна: Россия
Год выпуска: 2011
Жанр: мелодрама, комедия
Продолжительность: 4 серии ~ 45 минут

Субтитры: нет
Оригинальная аудиодорожка: русский

В ролях: Марат Башаров, Ольга Лерман, Ксения Роменкова, Павел Афонькин, Александр Городиский, Софья Райзман, Вадим Афанасьев, Алексей Размахов, Александр Пацевич, Игорь Ларин...

Режиссеры: Александр Черных

Описание: Что делать, если тебя не берут на работу твоей мечты только из-за того, что ты женщина?






Качество: DVDRip (DVD9 R5)
Формат: AVI

Видео: 720x400 (16:9), 25.000 fps, XViD ~ 2000 kbps avg, 0.278 bit/pixel
Аудио: 48 kHz, АС3 6 ch, 448 kbps, русский

Раздача от:
Общее
Полное имя : Krasavchik.2011.O.DVDRip_[New-Team]_by_avproh1.avi
Формат : AVI
Формат/Информация : Audio Video Interleave
Размер файла : 790 Мбайт
Продолжительность : 44 м.
Общий поток : 2457 Кбит/сек
Программа кодирования : VirtualDubMod 1.5.10.3 | www.virtualdub-fr.org || (build 2550/release)
Библиотека кодирования : VirtualDubMod build 2550/release

Видео
Идентификатор : 0
Формат : MPEG-4 Visual
Профиль формата : Advanced Simple@L5
Параметр BVOP формата : 1
Параметр QPel формата : Нет
Параметр GMC формата : Без точки перехода
Параметр матрицы формата : Выборочная
Идентификатор кодека : XVID
Идентификатор кодека/Подсказка : XviD
Продолжительность : 44 м.
Битрейт : 2000 Кбит/сек
Ширина : 720 пикселей
Высота : 400 пикселей
Соотношение сторон : 16:9
Частота кадров : 25,000 кадров/сек
Цветовое пространство : YUV
Субдискретизация насыщенности : 4:2:0
Битовая глубина : 8 бит
Тип развёртки : Прогрессивная
Метод сжатия : С потерями
Бит/(Пиксели*Кадры) : 0.278
Размер потока : 643 Мбайт (81%)
Библиотека кодирования : XviD 73

Аудио
Идентификатор : 1
Формат : AC-3
Формат/Информация : Audio Coding 3
Расширение режима : CM (complete main)
Параметр Endianness формата : Big
Идентификатор кодека : 2000
Продолжительность : 44 м.
Вид битрейта : Постоянный
Битрейт : 448 Кбит/сек
Каналы : 6 каналов
Расположение каналов : Front: L C R, Side: L R, LFE
Частота : 48,0 КГц
Битовая глубина : 16 бит
Метод сжатия : С потерями
Размер потока : 144 Мбайт (18%)
Выравнивание : Разделение по промежуткам
Продолжительность промежутка : 40 мс. (1,00 видеокадр)
Время предзагрузки промежутка : 500 мс.



http://alt.rutor.org/torrent/168676/

http://check2pic.ru/compare/32281/ перекроп у конкурента, а картинку сами видите. Да и звук там 2.0, а у меня 5.1.

http://alt.rutor.org/torrent/168444/ - эта раздача от того же релизера непонятно почему стоит. Там всего одна серия.



   Похожие торренты   Торрент   Размер 
В этой теме нет новых непрочитанных сообщений. Красавчик [01-04 из 04] (2011) DVDRip-AVC от New-Team | лицензия

33 | 2

3.13 ГБ

В этой теме нет новых непрочитанных сообщений. Красавчик [01-04 из 04] (2011) DVD9 R5 от New-Team | лицензия

0 | 2

6.7 ГБ

В этой теме нет новых непрочитанных сообщений. Красавчик [01-04 из 04] (2011) DVDRip от КинозалSAT

11 | 5

2.15 ГБ

В этой теме нет новых непрочитанных сообщений. Красавчик [01 из 04] (2011) DVDRip от КинозалSAT

0 | 2

550.02 МБ

В этой теме нет новых непрочитанных сообщений. Мой сосед-красавчик / Yiutjib Ggotminam / Flower Boy Next Door [01-16 из 16] (2013) HDTVRip 720p от BTT-TEAM

22 | 7

15.39 ГБ

В этой теме нет новых непрочитанных сообщений. Красавчик 2 / Zweiohrküken (2009) DVD5 от vadi, исх. лицензия

0 | 2

4.37 ГБ

В этой теме нет новых непрочитанных сообщений. Папа напрокат [01-04 из 04] (2011) DVDRip-AVC от New-Team | лицензия

75 | 50

3.41 ГБ




Вы не можете начинать темы
Вы не можете отвечать на сообщения
Вы не можете редактировать свои сообщения
Вы не можете удалять свои сообщения
Вы не можете добавлять вложения

Перейти:  
Для Мосгорсуда, Роскомнадзора и рекламодателей: mosgorsud-torrent[собачка]yandex.ru
 Вход
ppkBB3cker v.2 © 2008-2014 @ PPK
[ Time : 0.056s | 17 Queries | GZIP : Off ]

cron