img image001 image001 image001 image001 image001 image001 image001 image001 image001 image001 image001 image001 image001 image001 image001

Planets Sun Sun Sun
Статистика раздачи
Автор: PriZraK | Размер: 5.25 ГБ | Добавлен: 15 фев 2014
Раздают: 3    Качают: 4
Скачать торрент
Скачать торрент
Описание торрента

СообщениеДобавлено: 15 фев 2014 




Информация о фильме
Название: Дамское счастье
Оригинальное название: The Paradise
Год выхода: 2012
Жанр: драма
Режиссер: Дэвид Друри, Марк Йобст, Сьюзэн Талли
В ролях: Джоанна Вандерхем, Эмун Эллиотт, Питер Уайт, Мэтью МакНалти, Стивен Уайт, Соня Кессиди, Руби Бентал

О фильме:
Экранизация одноименного романа Эмиля Золя, действие которого перенесено из Парижа в Англию 1890-х годов и рассказывает историю юной девушки Дениз, которая попадает в большой город без каких-либо средств к существованию и устраивается на работу в магазин для дам. Очень скоро она понимает, что за восхитительной витриной скрывается мир интриг, любовных связей и борьбы за власть.

Страна: Великобритания
Студия: BBC Productions, Masterpiece co-production
Продолжительность: ~ 60 минут серия
Перевод: Профессиональный (многоголосый закадровый) [ТК Домашний]

Файл
Кодек: XviD / AC3
Качество: WEBDLRip
Видео: XviD, 720x400 (16:9), 25.000 fps, 1 390 Kbps (0.193 bit/pixel)
Звук: AC3, 48.0 KHz, 2 ch, 192 Kbps

Общее
Полное имя : K:МОИ РАЗДАЧИДамское счастьеThe.Paradise.s01e01.WEB-DLRip.Rus.avi
Формат : AVI
Формат/Информация : Audio Video Interleave
Размер файла : 670 Мбайт
Продолжительность : 59 м.
Общий поток : 1588 Кбит/сек
Название фильма : Дамское счастье. Сезон 1 / The Paradise. Season 1 (2012)
Программа кодирования : VirtualDubMod 1.5.10.2 (build 2540/release)
Библиотека кодирования : VirtualDubMod build 2540/release

Видео
Идентификатор : 0
Формат : MPEG-4 Visual
Профиль формата : Advanced Simple@L5
Параметр BVOP формата : 1
Параметр QPel формата : Нет
Параметр GMC формата : Без точки перехода
Параметр матрицы формата : Выборочная
Идентификатор кодека : XVID
Идентификатор кодека/Подсказка : XviD
Продолжительность : 59 м.
Битрейт : 1390 Кбит/сек
Ширина : 720 пикселей
Высота : 400 пикселей
Соотношение сторон : 16:9
Частота кадров : 25,000 кадров/сек
Цветовое пространство : YUV
Субдискретизация насыщенности : 4:2:0
Битовая глубина : 8 бит
Тип развёртки : Прогрессивная
Метод сжатия : С потерями
Бит/(Пиксели*Кадры) : 0.193
Размер потока : 587 Мбайт (88%)
Библиотека кодирования : XviD 73

Аудио
Идентификатор : 1
Формат : AC-3
Формат/Информация : Audio Coding 3
Расширение режима : CM (complete main)
Идентификатор кодека : 2000
Продолжительность : 59 м.
Вид битрейта : Постоянный
Битрейт : 192 Кбит/сек
Каналы : 2 канала
Расположение каналов : Front: L R
Частота : 48,0 КГц
Битовая глубина : 16 бит
Метод сжатия : С потерями
Размер потока : 81,0 Мбайт (12%)
Выравнивание : Соединение по промежуткам
Продолжительность промежутка : 160 мс. (4,00 видеокадра)
Время предзагрузки промежутка : 640 мс.
Заголовок : Профессиональный (многоголосый, закадровый) Домашний



   Похожие торренты   Торрент   Размер 
В этой теме нет новых непрочитанных сообщений. Дамское счастье / The Paradise [S01] (2012) WEBDLRip | BaibaKo

10 | 5

5.48 ГБ

В этой теме нет новых непрочитанных сообщений. Дамское счастье / The Paradise [S01-02] (2012-2013) WEB-DLRip | BaibaKo

3 | 3

12.49 ГБ

В этой теме нет новых непрочитанных сообщений. Дамское счастье / The Paradise [S02] (2013) WEB-DLRip | BaibaKo

5 | 11

6.22 ГБ

В этой теме нет новых непрочитанных сообщений. Дамское счастье / The Paradise [02х01-02 из 08] (2013) WEB-DL 1080p | BaibaKo

0 | 2

4.52 ГБ

В этой теме нет новых непрочитанных сообщений. Дамское счастье / The Paradise [02х01 из 08] (2013) WEB-DL 720p | BaibaKo

0 | 2

1.84 ГБ

В этой теме нет новых непрочитанных сообщений. Тихонов И. (сост.) - Ваш домашний сантехник. Ваш домашний электрик. Книга-помощник (2012) PDF

187 | 3

43.89 МБ

В этой теме нет новых непрочитанных сообщений. Джесси Cтоун: Тайны парадиза / Jesse Stone: Lost in Paradise (Роберт Хармон) [2015, драма, криминал, WEBDLRip] MVO

1035 | 29

1.37 ГБ




Вы не можете начинать темы
Вы не можете отвечать на сообщения
Вы не можете редактировать свои сообщения
Вы не можете удалять свои сообщения
Вы не можете добавлять вложения

Перейти:  
Для Мосгорсуда, Роскомнадзора и рекламодателей: mosgorsud-torrent[собачка]yandex.ru
 Вход
ppkBB3cker v.2 © 2008-2014 @ PPK
[ Time : 0.026s | 14 Queries | GZIP : On ]

Торрент трекер RUTOR.IN, Не можете зайти на rutor.org? Какой новый адрес рутор? Какое зеркало рутор? Не работает rutor.org и зеркала? Тогда наш торрент специально для вас. Rutor.in неофициальное зеркало rutor. В случае если у Вас заблокирован rutor или вдруг Вы не можете на него зайти, то Вы без труда сможете скачать бесплатно и без рекламы последние новинки кино, игр, сериалов и прочего у нас, на Rutor.in. Не нужно использовать прокси, чтобы зайти на рутор, достаточно воспользоваться нашим ресурсом. Все новые фильмы, игры, сериалы, книги и музыка за 2013 и 2014 годы через торрент бесплатно. Скачивайте фильмы в хорошем качестве, игры для пк, xbox, playstation без регистрации. У нас вы найдете новые Зарубежные сериалы и Русские сериалы 2013, 2014, 2015 годов. Оставайтесь с нами, качайте любимые фильмы, игры, сериалы, книги и музыку.