img image001 image001 image001 image001 image001 image001 image001 image001 image001 image001 image001 image001 image001 image001 image001

Planets Sun Sun Sun
Статистика раздачи
Автор: PriZraK | Размер: 16.58 ГБ | Добавлен: 15 фев 2014
Раздают: 2946    Качают: 698
Скачать торрент
Скачать торрент
Описание торрента

СообщениеДобавлено: 15 фев 2014 


Страна: Россия
Год выпуска: 2012
Жанр: драма, криминал
Продолжительность: 24 серии ~ 44 минуты

Субтитры: нет
Оригинальная аудиодорожка: русский

В ролях: Владимир Вдовиченков, Сергей Жигунов, Алёна Бабенко, Виктор Раков, Юрий Беляев, Кирилл Плетнёв, Константин Лавроненко, Андрей Ильин, Екатерина Климова, Богдан Ступка...

Режиссеры: Константин Худяков

Описание: СССР, 2 июня 1962 года. В центре повествования история жизни и преступной деятельности шайки бандитов, известных как "фантомасы" Толстопятовы, которые в эти неспокойные времена нагоняли страх на всех жителей города. Кроме этого сериал повествует о событиях, связанных с расстрелом голодного бунта, произошедшего в Новочеркасске, и о событиях, последовавших за ним и оказавших влияние на всю страну. Один из главных героев сериала - талантливый художник, гениальный конструктор Вячеслав Толстопятов (Владимир Вдовиченков). После того, как он волею судьбы оказывается невольным свидетелем расстрела мирной демонстрации в Новочеркасске, он пересматривает свои убеждения и становится бандитом.
После снижения заработной платы и повышения цен жители Новочеркасска вышли на мирную демонстрацию. Но страсти быстро накалились и привели к трагедии - расстрелу митингующих рабочих, несмотря на протесты генерала Шапошникова (Юрий Беляев). Властям удается замять трагедию, у свидетелей берут подписку о неразглашении, а все несогласные получают тюремные сроки. На митинге присутствовал и Вячеслав Толстопятов. Увиденное перевернуло его представление о жизни... Вместе со своим старшим братом, киномехаником Владимиром (Виктор Раков), его женой Тамарой (Алена Бабенко) и другом Александром (Михаил Евланов) он организует банду. Они грабят государственные сберкассы, скрывая свои лица под чулками. За необычный вид бандиты получают в народе прозвище - "Фантомасы". По следу шайки идут капитан уголовного розыска Павел Карпухин (Кирилл Плетнев) и офицер КГБ Сергей Колесников (Сергей Жигунов). Дело "Фантомасов" берут на контроль на самом верху. Когда в дело примешивается политика, в столкновение органов госбезопасности и группировки оказываются втянуты врачи, профессора, уголовники, диссиденты.
Несколько лет, с 1968 по 1973, банда Толстопятовых держала в страхе Ростов. Успех им обеспечивал талант Вячеслава, который не только продумывал каждую операцию до мелочей, но даже создал гибрид пистолета и пулемета для своих напарников.
Бандитов долго не могут поймать, они всегда опережают милиционеров, лучше оснащены технически и не привлекают внимания, т.к. почти не тратят свою добычу.






Качество: DVDRip (4 x DVD9 R5)
Формат: AVI

Видео: 720x400 (16:9), 25.000 fps, XViD ~ 2000 kbps avg, 0.278 bit/pixel
Аудио: 48 kHz, АС3 2 ch, 192 kbps, русский

Раздача от:
Общее
Полное имя : Odnajdy.v.Rostove.2012.O.DVDRip_[New-Team]_by_avproh1.avi
Формат : AVI
Формат/Информация : Audio Video Interleave
Размер файла : 704 Мбайт
Продолжительность : 44 м.
Общий поток : 2201 Кбит/сек
Программа кодирования : VirtualDubMod 1.5.10.3 | www.virtualdub-fr.org || (build 2550/release)
Библиотека кодирования : VirtualDubMod build 2550/release

Видео
Идентификатор : 0
Формат : MPEG-4 Visual
Профиль формата : Advanced Simple@L5
Параметр BVOP формата : 1
Параметр QPel формата : Нет
Параметр GMC формата : Без точки перехода
Параметр матрицы формата : Выборочная
Идентификатор кодека : XVID
Идентификатор кодека/Подсказка : XviD
Продолжительность : 44 м.
Битрейт : 2000 Кбит/сек
Ширина : 720 пикселей
Высота : 400 пикселей
Соотношение сторон : 16:9
Частота кадров : 25,000 кадров/сек
Цветовое пространство : YUV
Субдискретизация насыщенности : 4:2:0
Битовая глубина : 8 бит
Тип развёртки : Прогрессивная
Метод сжатия : С потерями
Бит/(Пиксели*Кадры) : 0.278
Размер потока : 639 Мбайт (91%)
Библиотека кодирования : XviD 73

Аудио
Идентификатор : 1
Формат : AC-3
Формат/Информация : Audio Coding 3
Расширение режима : CM (complete main)
Параметр Endianness формата : Big
Идентификатор кодека : 2000
Продолжительность : 44 м.
Вид битрейта : Постоянный
Битрейт : 192 Кбит/сек
Каналы : 2 канала
Расположение каналов : Front: L R
Частота : 48,0 КГц
Битовая глубина : 16 бит
Метод сжатия : С потерями
Размер потока : 61,4 Мбайт (9%)
Выравнивание : Разделение по промежуткам
Продолжительность промежутка : 40 мс. (1,00 видеокадр)
Время предзагрузки промежутка : 500 мс.



http://alt.rutor.org/torrent/194213/

http://screenshotcomparison.com/comparison/47933 перекроп у конкурента, а картинку сами видите.



   Похожие торренты   Торрент   Размер 
В этой теме нет новых непрочитанных сообщений. Однажды в Ростове [01-24 из 24] (2012) DVDRip-AVC от New-Team | лицензия

649 | 150

16.55 ГБ

В этой теме нет новых непрочитанных сообщений. Однажды в Ростове [01-24 из 24] (2012) 4xDVD9 R5 от New-Team | лицензия

40 | 10

30.8 ГБ

В этой теме нет новых непрочитанных сообщений. Однажды в Ростове [01-24] (2012) DVB

39 | 52

19.85 ГБ

В этой теме нет новых непрочитанных сообщений. Однажды в Ростове [01-06 из 24] (2012) HDTVRip-AVC

184 | 26

3.73 ГБ

В этой теме нет новых непрочитанных сообщений. Однажды в Ростове [01-06 из 24] (2012) HDTVRip-AVC

20 | 29

2.87 ГБ

В этой теме нет новых непрочитанных сообщений. Однажды в Ростове [01-02 из 24] (2012) HDTVRip от GeneralFilm

94 | 4

1.21 ГБ

В этой теме нет новых непрочитанных сообщений. Однажды в Ростове [01-24] (2012) SATRip от Getty

508 | 120

11.95 ГБ




Вы не можете начинать темы
Вы не можете отвечать на сообщения
Вы не можете редактировать свои сообщения
Вы не можете удалять свои сообщения
Вы не можете добавлять вложения

Перейти:  
Для Мосгорсуда, Роскомнадзора и рекламодателей: mosgorsud-torrent[собачка]yandex.ru
 Вход
ppkBB3cker v.2 © 2008-2014 @ PPK
[ Time : 0.062s | 14 Queries | GZIP : Off ]

Торрент трекер RUTOR.IN, Не можете зайти на rutor.org? Какой новый адрес рутор? Какое зеркало рутор? Не работает rutor.org и зеркала? Тогда наш торрент специально для вас. Rutor.in неофициальное зеркало rutor. В случае если у Вас заблокирован rutor или вдруг Вы не можете на него зайти, то Вы без труда сможете скачать бесплатно и без рекламы последние новинки кино, игр, сериалов и прочего у нас, на Rutor.in. Не нужно использовать прокси, чтобы зайти на рутор, достаточно воспользоваться нашим ресурсом. Все новые фильмы, игры, сериалы, книги и музыка за 2013 и 2014 годы через торрент бесплатно. Скачивайте фильмы в хорошем качестве, игры для пк, xbox, playstation без регистрации. У нас вы найдете новые Зарубежные сериалы и Русские сериалы 2013, 2014, 2015 годов. Оставайтесь с нами, качайте любимые фильмы, игры, сериалы, книги и музыку.