img image001 image001 image001 image001 image001 image001 image001 image001 image001 image001 image001 image001 image001 image001 image001

Planets Sun Sun Sun
Статистика раздачи
Автор: PriZraK | Размер: 2.89 ГБ | Добавлен: 15 фев 2014
Раздают: 6    Качают: 4
Скачать торрент
Скачать торрент
Описание торрента

СообщениеДобавлено: 15 фев 2014 


Степные дети

«Когда нечего терять, жизнь прекрасна...»

Страна: Россия
Жанр: Драма
Год выпуска: 2012
Продолжительность: 03:21:03
Перевод: не требуется

Режиссер: Дмитрий Черкасов

В ролях: Алексей Литвиненко, Константин Юшкевич, Михаил Евланов, Мария Машкова, Евгения Осипова, Александр Робак, Анна Лутцева, Евгений Никитин, Алиса Богарт, Станислав Сальников и др.
Описание: Бесконечные степи, синие полосы моря, небо, падающее на самые плечи — это детство. Время, из которого сначала так стремишься убежать, а потом так мучительно хочешь вернуться.

Жизнь Захара Зимина и его детдомовской компании безвозвратно изменилась в одну дождливую ночь. Именно эта ночь разбудила всю кубанскую станицу. Местный детский дом, не выдержав давления временем, разрушился. Дети остались на улице. Перед директором Климовым встает выбор: разослать детей по всей России или оставить здесь, в казачьих семьях, пока дом не будет восстановлен. Он выбирает второй путь. Месяцы жизни тех, кто не знал нужды, и тех, кому уже нечего терять. Им неполные восемнадцать, впереди целая жизнь, огромная, как море. Жизнь, которая больше не нужна никому…



Качество видео: SATRip [DVB]
Формат видео: AVI
Видео кодек: XviD
Аудио кодек: AC3
Видео: 720x400 (1.80:1), 25 fps, XviD build 73 ~1921 kbps avg, 0.27 bit/pixel
Аудио: 48 kHz, AC3 Dolby Digital, 2/0 (L,R) ch, 192 kbps avg

Раздача от:


D:Мои рипыStepnye.Deti.SATRip.dexter_lexStepnye.Deti.E01.2012.SATRip.dexter_lex.avi
General
Complete name : D:Мои рипыStepnye.Deti.SATRip.dexter_lexStepnye.Deti.E01.2012.SATRip.dexter_lex.avi
Format : AVI
Format/Info : Audio Video Interleave
File size : 742 MiB
Duration : 48mn 51s
Overall bit rate : 2 124 Kbps
Writing application : VirtualDubMod 1.5.10.3 | www.virtualdub-fr.org || (build 2550/release)
Writing library : VirtualDubMod build 2550/release
Video #0
ID : 0
Format : MPEG-4 Visual
Format profile : Advanced Simple@L5
Format settings, BVOP : 1
Format settings, QPel : No
Format settings, GMC : No warppoints
Format settings, Matrix : Custom
Codec ID : XVID
Codec ID/Hint : XviD
Duration : 48mn 51s
Bit rate : 1 922 Kbps
Width : 720 pixels
Height : 400 pixels
Display aspect ratio : 16:9
Frame rate : 25.000 fps
Color space : YUV
Chroma subsampling : 4:2:0
Bit depth : 8 bits
Scan type : Progressive
Compression mode : Lossy
Bits/(Pixel*Frame) : 0.267
Stream size : 672 MiB (91%)
Writing library : XviD 73
Audio #1
ID : 1
Format : AC-3
Format/Info : Audio Coding 3
Mode extension : CM (complete main)
Codec ID : 2000
Duration : 48mn 51s
Bit rate mode : Constant
Bit rate : 192 Kbps
Channel(s) : 2 channels
Channel positions : Front: L R
Sampling rate : 48.0 KHz
Bit depth : 16 bits
Compression mode : Lossy
Stream size : 67.1 MiB (9%)
Alignment : Split accross interleaves
Interleave, duration : 40 ms (1.00 video frame)
Interleave, preload duration : 500 ms



   Похожие торренты   Торрент   Размер 
В этой теме нет новых непрочитанных сообщений. Степные дети [01-04 из 04] (2012) SATRip от RiperAM

34 | 5

2.29 ГБ

В этой теме нет новых непрочитанных сообщений. Степные дети (2012) SATRip от КинозалSAT

13 | 2

2.74 ГБ

В этой теме нет новых непрочитанных сообщений. Степные дети [01-04 из 04] (2012) DVB

3 | 4

6.28 ГБ

В этой теме нет новых непрочитанных сообщений. Отцы и дети (1958) SATRip от New-Team

15 | 2

1.46 ГБ

В этой теме нет новых непрочитанных сообщений. Отцы и дети (1958) SATRip от New-Team

9 | 2

745.41 МБ

В этой теме нет новых непрочитанных сообщений. Отцы и дети (1958) SATRip от New-Team

85 | 1

1.46 ГБ

В этой теме нет новых непрочитанных сообщений. Дети солнца (1956) SATRip-AVC от New-Team

0 | 1

2.18 ГБ




Вы не можете начинать темы
Вы не можете отвечать на сообщения
Вы не можете редактировать свои сообщения
Вы не можете удалять свои сообщения
Вы не можете добавлять вложения

Перейти:  
Для Мосгорсуда, Роскомнадзора и рекламодателей: mosgorsud-torrent[собачка]yandex.ru
 Вход
ppkBB3cker v.2 © 2008-2014 @ PPK
[ Time : 0.047s | 17 Queries | GZIP : Off ]

cron