img image001 image001 image001 image001 image001 image001 image001 image001 image001 image001 image001 image001 image001 image001 image001

Planets Sun Sun Sun
Статистика раздачи
Автор: PriZraK | Размер: 3.67 ГБ | Добавлен: 15 фев 2014
Раздают: 97    Качают: 4
Скачать торрент
Скачать торрент
Описание торрента

СообщениеДобавлено: 15 фев 2014 




Информация о фильме
Название: Ярмарка тщеславия
Оригинальное название: Vanity Fair
Год выхода: 1998
Жанр: драма, мелодрама
Режиссер: Марк Манден
В ролях: Наташа Литтл Фрэнсис Грей Дэвид Росс Филип Гленистер Мишель Дотрис Джанин Дувицкий Энтон Лессер Натаниель Паркер Джереми Свифт Том Уорд

О фильме:
Красивая, умная и обаятельная Бекки Шарп — бывшая гувернантка. Она непревзойденная искусительница и карьеристка. Бекки готова пойти на любые уловки и разбить несчетное количество мужских сердец, чтобы заполучить богатого и знатного мужа.

Вся ее бурная и полная приключений жизнь посвящена одной цели — поискам влиятельного покровителя. А ее кроткая подруга Амелия преданно любит ветреного офицера Джорджа Осборна, хотя по ней тайно страдает его верный друг капитан Доббин. Смогут ли подруги пережить все превратности любви, уготованные им судьбой?

Страна: Великобритания, США
Студия: A&E Television Networks, BBC
Продолжительность: 05:05:00
Перевод: Профессиональный (многоголосый, закадровый)

Файл
Кодек: DivX / MP3
Качество: DVDRip
Видео: DivX, 640x480, ~1500 Кбит/сек, 25,000 кадр/сек
Звук: MP3, 2 ch, 160 KBps

Общее
Полное имя : F:KINOvanity_fair_1998_vanity_fair_1998_part2.avi
Формат : AVI
Формат/Информация : Audio Video Interleave
Размер файла : 1,78 Гбайт
Продолжительность : 2 ч. 34 м.
Общий поток : 1658 Кбит/сек
Библиотека кодирования : VirtualDub build 28191/release

Видео
Идентификатор : 0
Формат : MPEG-4 Visual
Параметр BVOP формата : 1
Параметр QPel формата : Нет
Параметр GMC формата : Без точки перехода
Параметр матрицы формата : Default (H.263)
Режим смешивания : Сжатый битовый поток
Идентификатор кодека : DX50
Идентификатор кодека/Подсказка : DivX 5
Продолжительность : 2 ч. 34 м.
Битрейт : 1488 Кбит/сек
Ширина : 640 пикс.
Высота : 480 пикс.
Соотношение сторон : 4:3
Частота кадров : 25,000 кадр/сек
Цветовое пространство : YUV
Подвыборка цветности : 4:2:0
Битовая глубина : 8 бит
Тип развёртки : Прогрессивная
Метод сжатия : С потерями
Бит/(Пиксели*Кадры) : 0.194
Размер потока : 1,60 Гбайт (90%)
Библиотека кодирования : DivX 6.2.5 (UTC 2006-07)

Аудио
Идентификатор : 1
Формат : MPEG Audio
Версия формата : Version 1
Профиль формата : Layer 3
Идентификатор кодека : 55
Идентификатор кодека/Подсказка : MP3
Продолжительность : 2 ч. 33 м.
Вид битрейта : Постоянный
Битрейт : 160 Кбит/сек
Каналы : 2 канала
Частота : 48,0 КГц
Метод сжатия : С потерями
Задержка видео : 160 мс.
Размер потока : 176 Мбайт (10%)
Выравнивание : Разделение по промежуткам
Продолжительность промежутка : 40 мс. (1,00 видеокадр)
Время предзагрузки промежутка : 500 ms



   Похожие торренты   Торрент   Размер 
В этой теме нет новых непрочитанных сообщений. Ярмарка тщеславия / Vanity Fair (2004) HDRip

291 | 11

1.46 ГБ

В этой теме нет новых непрочитанных сообщений. Ярмарка тщеславия / Vanity Fair (2004) BDRip

67 | 16

2.88 ГБ

В этой теме нет новых непрочитанных сообщений. Ярмарка тщеславия / Vanity Fair (2004) BDRip 1080

27 | 9

11.74 ГБ

В этой теме нет новых непрочитанных сообщений. Ярмарка тщеславия / Vanity Fair (2004) BDRip 720p

31 | 5

6.93 ГБ

В этой теме нет новых непрочитанных сообщений. Сорочинская ярмарка (2004) DVDRip

294 | 29

1.37 ГБ

В этой теме нет новых непрочитанных сообщений. Сорочинская ярмарка (1939) DVDRip-AVC от New-Team

108 | 24

1.09 ГБ

В этой теме нет новых непрочитанных сообщений. Сорочинская ярмарка (1939) DVDRip от New-Team

30 | 7

753.42 МБ




Вы не можете начинать темы
Вы не можете отвечать на сообщения
Вы не можете редактировать свои сообщения
Вы не можете удалять свои сообщения
Вы не можете добавлять вложения

Перейти:  
Для Мосгорсуда, Роскомнадзора и рекламодателей: mosgorsud-torrent[собачка]yandex.ru
 Вход
ppkBB3cker v.2 © 2008-2014 @ PPK
[ Time : 0.029s | 15 Queries | GZIP : Off ]

Торрент трекер RUTOR.IN, Не можете зайти на rutor.org? Какой новый адрес рутор? Какое зеркало рутор? Не работает rutor.org и зеркала? Тогда наш торрент специально для вас. Rutor.in неофициальное зеркало rutor. В случае если у Вас заблокирован rutor или вдруг Вы не можете на него зайти, то Вы без труда сможете скачать бесплатно и без рекламы последние новинки кино, игр, сериалов и прочего у нас, на Rutor.in. Не нужно использовать прокси, чтобы зайти на рутор, достаточно воспользоваться нашим ресурсом. Все новые фильмы, игры, сериалы, книги и музыка за 2013 и 2014 годы через торрент бесплатно. Скачивайте фильмы в хорошем качестве, игры для пк, xbox, playstation без регистрации. У нас вы найдете новые Зарубежные сериалы и Русские сериалы 2013, 2014, 2015 годов. Оставайтесь с нами, качайте любимые фильмы, игры, сериалы, книги и музыку.