img image001 image001 image001 image001 image001 image001 image001 image001 image001 image001 image001 image001 image001 image001 image001

Planets Sun Sun Sun
Статистика раздачи
Автор: PriZraK | Размер: 10.29 ГБ | Добавлен: 15 фев 2014
Раздают: 276    Качают: 50
Скачать торрент
Скачать торрент
Описание торрента

СообщениеДобавлено: 15 фев 2014 


Страна: Россия
Год выпуска: 2013
Жанр: драма, военный
Продолжительность: 12 серий ~ 50 минут

Субтитры: нет
Оригинальная аудиодорожка: русский

В ролях: Светлана Иванова, Светлана Устинова, Владимир Вдовиченков, Ирина Апексимова, Евгений Пронин, Анатолий Руденко, Николай Добрынин, Елизавета Лотова, Лянка Грыу, Александра Мареева...

Режиссеры: Феликс Герчиков

Описание:О драматическом переплетении судеб двух девушек-разведчиц в годы Второй мировой. Арина Прозоровская — идеалистка, убежденная комсомолка, выросшая в интеллигентной семье. Зоя Величко — деревенская девушка, дочь репрессированного кулака, волей судеб оказавшаяся в уголовной среде и набравшаяся там некоторого цинизма.
Незадолго до войны обе девушки оказываются в разведшколе, которой руководит опытный разведчик майор Воротынников. Обстоятельства, при которых девушки начинают учебу, весьма трагические. На Арине «висит» обвинение в измене Родине, и служба для нее единственный шанс оправдаться. Зою обвиняют в убийстве матери Арины, которое произошло незадолго до того, как девушки попали в разведшколу. И хотя Зоя не совершала убийства, и даже пыталась помешать ему, доказательств у нее нет. Поэтому для Зои работа на государство — также единственная возможность избежать наказания.






Качество: DVDRip (2 x DVD9 R5)
Формат: AVI

Видео: 720x400 (16:9), 25.000 fps, XViD ~ 2000 kbps avg, 0.278 bit/pixel
Аудио: 48 kHz, АС3 6 ch, 448 kbps, русский

Раздача от:
Общее
Полное имя : Razvedchitsy.2013.O.DVDRip_[New-Team]_by_avproh\01.avi
Формат : AVI
Формат/Информация : Audio Video Interleave
Размер файла : 894 Мбайт
Продолжительность : 50 м.
Общий поток : 2457 Кбит/сек
Программа кодирования : VirtualDubMod 1.5.10.3 | www.virtualdub-fr.org || (build 2550/release)
Библиотека кодирования : VirtualDubMod build 2550/release

Видео
Идентификатор : 0
Формат : MPEG-4 Visual
Профиль формата : Advanced Simple@L5
Параметр BVOP формата : 1
Параметр QPel формата : Нет
Параметр GMC формата : Без точки перехода
Параметр матрицы формата : Выборочная
Идентификатор кодека : XVID
Идентификатор кодека/Подсказка : XviD
Продолжительность : 50 м.
Битрейт : 1999 Кбит/сек
Ширина : 720 пикселей
Высота : 400 пикселей
Соотношение сторон : 16:9
Частота кадров : 25,000 кадров/сек
Цветовое пространство : YUV
Субдискретизация насыщенности : 4:2:0
Битовая глубина : 8 бит
Тип развёртки : Прогрессивная
Метод сжатия : С потерями
Бит/(Пиксели*Кадры) : 0.278
Размер потока : 727 Мбайт (81%)
Библиотека кодирования : XviD 73

Аудио
Идентификатор : 1
Формат : AC-3
Формат/Информация : Audio Coding 3
Расширение режима : CM (complete main)
Параметр Endianness формата : Big
Идентификатор кодека : 2000
Продолжительность : 50 м.
Вид битрейта : Постоянный
Битрейт : 448 Кбит/сек
Каналы : 6 каналов
Расположение каналов : Front: L C R, Side: L R, LFE
Частота : 48,0 КГц
Битовая глубина : 16 бит
Метод сжатия : С потерями
Размер потока : 163 Мбайт (18%)
Выравнивание : Разделение по промежуткам
Продолжительность промежутка : 40 мс. (1,00 видеокадр)
Время предзагрузки промежутка : 500 мс.





   Похожие торренты   Торрент   Размер 
В этой теме нет новых непрочитанных сообщений. Разведчицы [01-12 из 12] (2013) DVDRip-AVC от New-Team | лицензия

204 | 45

10.26 ГБ

В этой теме нет новых непрочитанных сообщений. Разведчицы [01-12 из 12] (2013) 2xDVD9 R5 от New-Team | лицензия

2 | 12

15.78 ГБ

В этой теме нет новых непрочитанных сообщений. Разведчицы [01-12 из 12] (2013) WEB-DL 720p

53 | 17

16.83 ГБ

В этой теме нет новых непрочитанных сообщений. Разведчицы [01-12 из 12] (2013) DVB от Files-x

56 | 34

19.14 ГБ

В этой теме нет новых непрочитанных сообщений. Разведчицы [01-12 из 12] (2013) WEB-DLRip

315 | 32

7.62 ГБ

В этой теме нет новых непрочитанных сообщений. Разведчицы [01-12 из 12] (2013) SATRip от Getty

622 | 121

6.5 ГБ

В этой теме нет новых непрочитанных сообщений. Разведчицы [01-12 из 12] (2013) WEB-DLRip от Generalfilm | КПК

289 | 36

2.62 ГБ




Вы не можете начинать темы
Вы не можете отвечать на сообщения
Вы не можете редактировать свои сообщения
Вы не можете удалять свои сообщения
Вы не можете добавлять вложения

Перейти:  
Для Мосгорсуда, Роскомнадзора и рекламодателей: mosgorsud-torrent[собачка]yandex.ru
 Вход
ppkBB3cker v.2 © 2008-2014 @ PPK
[ Time : 0.072s | 18 Queries | GZIP : Off ]

Торрент трекер RUTOR.IN, Не можете зайти на rutor.org? Какой новый адрес рутор? Какое зеркало рутор? Не работает rutor.org и зеркала? Тогда наш торрент специально для вас. Rutor.in неофициальное зеркало rutor. В случае если у Вас заблокирован rutor или вдруг Вы не можете на него зайти, то Вы без труда сможете скачать бесплатно и без рекламы последние новинки кино, игр, сериалов и прочего у нас, на Rutor.in. Не нужно использовать прокси, чтобы зайти на рутор, достаточно воспользоваться нашим ресурсом. Все новые фильмы, игры, сериалы, книги и музыка за 2013 и 2014 годы через торрент бесплатно. Скачивайте фильмы в хорошем качестве, игры для пк, xbox, playstation без регистрации. У нас вы найдете новые Зарубежные сериалы и Русские сериалы 2013, 2014, 2015 годов. Оставайтесь с нами, качайте любимые фильмы, игры, сериалы, книги и музыку.