img image001 image001 image001 image001 image001 image001 image001 image001 image001 image001 image001 image001 image001 image001 image001

Planets Sun Sun Sun
Статистика раздачи
Автор: PriZraK | Размер: 16.55 ГБ | Добавлен: 15 фев 2014
Раздают: 647    Качают: 149
Скачать торрент
Скачать торрент
Описание торрента

СообщениеДобавлено: 15 фев 2014 



Страна: Россия
Год выпуска: 2012
Жанр: драма, криминал
Продолжительность: 24 серии ~ 44 минуты

Субтитры: нет
Оригинальная аудиодорожка: русский

В ролях: Владимир Вдовиченков, Сергей Жигунов, Алёна Бабенко, Виктор Раков, Юрий Беляев, Кирилл Плетнёв, Константин Лавроненко, Андрей Ильин, Екатерина Климова, Богдан Ступка...

Режиссеры: Константин Худяков

Описание: СССР, 2 июня 1962 года. В центре повествования история жизни и преступной деятельности шайки бандитов, известных как "фантомасы" Толстопятовы, которые в эти неспокойные времена нагоняли страх на всех жителей города. Кроме этого сериал повествует о событиях, связанных с расстрелом голодного бунта, произошедшего в Новочеркасске, и о событиях, последовавших за ним и оказавших влияние на всю страну. Один из главных героев сериала - талантливый художник, гениальный конструктор Вячеслав Толстопятов (Владимир Вдовиченков). После того, как он волею судьбы оказывается невольным свидетелем расстрела мирной демонстрации в Новочеркасске, он пересматривает свои убеждения и становится бандитом.
После снижения заработной платы и повышения цен жители Новочеркасска вышли на мирную демонстрацию. Но страсти быстро накалились и привели к трагедии - расстрелу митингующих рабочих, несмотря на протесты генерала Шапошникова (Юрий Беляев). Властям удается замять трагедию, у свидетелей берут подписку о неразглашении, а все несогласные получают тюремные сроки. На митинге присутствовал и Вячеслав Толстопятов. Увиденное перевернуло его представление о жизни... Вместе со своим старшим братом, киномехаником Владимиром (Виктор Раков), его женой Тамарой (Алена Бабенко) и другом Александром (Михаил Евланов) он организует банду. Они грабят государственные сберкассы, скрывая свои лица под чулками. За необычный вид бандиты получают в народе прозвище - "Фантомасы". По следу шайки идут капитан уголовного розыска Павел Карпухин (Кирилл Плетнев) и офицер КГБ Сергей Колесников (Сергей Жигунов). Дело "Фантомасов" берут на контроль на самом верху. Когда в дело примешивается политика, в столкновение органов госбезопасности и группировки оказываются втянуты врачи, профессора, уголовники, диссиденты.
Несколько лет, с 1968 по 1973, банда Толстопятовых держала в страхе Ростов. Успех им обеспечивал талант Вячеслава, который не только продумывал каждую операцию до мелочей, но даже создал гибрид пистолета и пулемета для своих напарников.
Бандитов долго не могут поймать, они всегда опережают милиционеров, лучше оснащены технически и не привлекают внимания, т.к. почти не тратят свою добычу.






Качество: DVDRip-AVC (4 x DVD9 R5)
Формат: MKV

Видео: 720x572@1024x572 (16:9), 25.000 fps, H264 ~ 2006 kbps avg, 0.195 bit/pixel
Аудио: 48 kHz, АС3 2 ch, 192 kbps, русский

Раздача от:
Общее
Полное имя : Odnajdy.v.Rostove.2012.O.DVDRip-AVC_[New-Team]_by_avproh\01.mkv
Формат : Matroska
Версия формата : Version 2
Размер файла : 703 Мбайт
Продолжительность : 44 м.
Общий поток : 2199 Кбит/сек
Дата кодирования : UTC 2013-11-07 01:15:51
Программа кодирования : mkvmerge v6.1.0 ('Old Devil') built on Mar 4 2013 09:10:42
Библиотека кодирования : libebml v1.3.0 + libmatroska v1.4.0

Видео
Идентификатор : 1
Формат : AVC
Формат/Информация : Advanced Video Codec
Профиль формата : High@L4.1
Параметр CABAC формата : Да
Параметр ReFrames формата : 6 кадров
Идентификатор кодека : V_MPEG4/ISO/AVC
Продолжительность : 44 м.
Битрейт : 2006 Кбит/сек
Ширина : 720 пикселей
Высота : 572 пикселя
Соотношение сторон : 16:9
Режим частоты кадров : Постоянный
Частота кадров : 25,000 кадров/сек
Цветовое пространство : YUV
Субдискретизация насыщенности : 4:2:0
Битовая глубина : 8 бит
Тип развёртки : Прогрессивная
Бит/(Пиксели*Кадры) : 0.195
Размер потока : 628 Мбайт (89%)
Библиотека кодирования : x264 core 138 r2356 a1d3d17
Настройки программы : cabac=1 / ref=6 / deblock=1:-2:-1 / analyse=0x3:0x113 / me=umh / subme=10 / psy=1 / psy_rd=1.00:0.05 / mixed_ref=1 / me_range=32 / chroma_me=1 / trellis=2 / 8x8dct=1 / cqm=0 / deadzone=21,11 / fast_pskip=0 / chroma_qp_offset=-3 / threads=6 / lookahead_threads=1 / sliced_threads=0 / nr=0 / decimate=0 / interlaced=0 / bluray_compat=0 / constrained_intra=0 / bframes=8 / b_pyramid=2 / b_adapt=2 / b_bias=0 / direct=3 / weightb=1 / open_gop=0 / weightp=2 / keyint=250 / keyint_min=25 / scenecut=40 / intra_refresh=0 / rc=2pass / mbtree=0 / bitrate=2006 / ratetol=1.0 / qcomp=0.60 / qpmin=0 / qpmax=69 / qpstep=4 / cplxblur=20.0 / qblur=0.5 / ip_ratio=1.40 / pb_ratio=1.30 / aq=1:1.00
Default : Да
Forced : Нет

Аудио
Идентификатор : 2
Формат : AC-3
Формат/Информация : Audio Coding 3
Расширение режима : CM (complete main)
Параметр Endianness формата : Big
Идентификатор кодека : A_AC3
Продолжительность : 44 м.
Вид битрейта : Постоянный
Битрейт : 192 Кбит/сек
Каналы : 2 канала
Расположение каналов : Front: L R
Частота : 48,0 КГц
Битовая глубина : 16 бит
Метод сжатия : С потерями
Размер потока : 61,4 Мбайт (9%)
Default : Да
Forced : Нет





   Похожие торренты   Торрент   Размер 
В этой теме нет новых непрочитанных сообщений. Однажды в Ростове [01-24 из 24] (2012) DVDRip от New-Team | лицензия

2847 | 651

16.58 ГБ

В этой теме нет новых непрочитанных сообщений. Однажды в Ростове [01-24 из 24] (2012) 4xDVD9 R5 от New-Team | лицензия

40 | 10

30.8 ГБ

В этой теме нет новых непрочитанных сообщений. Однажды в Ростове [01-24] (2012) DVB

39 | 52

19.85 ГБ

В этой теме нет новых непрочитанных сообщений. Однажды в Ростове [01-06 из 24] (2012) HDTVRip-AVC

20 | 29

2.87 ГБ

В этой теме нет новых непрочитанных сообщений. Однажды в Ростове [01-06 из 24] (2012) HDTVRip-AVC

184 | 26

3.73 ГБ

В этой теме нет новых непрочитанных сообщений. Однажды в Ростове [01-02 из 24] (2012) HDTVRip от GeneralFilm

94 | 4

1.21 ГБ

В этой теме нет новых непрочитанных сообщений. Однажды в Ростове [01-24] (2012) SATRip от Getty

508 | 120

11.95 ГБ




Вы не можете начинать темы
Вы не можете отвечать на сообщения
Вы не можете редактировать свои сообщения
Вы не можете удалять свои сообщения
Вы не можете добавлять вложения

Перейти:  
Для Мосгорсуда, Роскомнадзора и рекламодателей: mosgorsud-torrent[собачка]yandex.ru
 Вход
ppkBB3cker v.2 © 2008-2014 @ PPK
[ Time : 0.049s | 17 Queries | GZIP : Off ]

Торрент трекер RUTOR.IN, Не можете зайти на rutor.org? Какой новый адрес рутор? Какое зеркало рутор? Не работает rutor.org и зеркала? Тогда наш торрент специально для вас. Rutor.in неофициальное зеркало rutor. В случае если у Вас заблокирован rutor или вдруг Вы не можете на него зайти, то Вы без труда сможете скачать бесплатно и без рекламы последние новинки кино, игр, сериалов и прочего у нас, на Rutor.in. Не нужно использовать прокси, чтобы зайти на рутор, достаточно воспользоваться нашим ресурсом. Все новые фильмы, игры, сериалы, книги и музыка за 2013 и 2014 годы через торрент бесплатно. Скачивайте фильмы в хорошем качестве, игры для пк, xbox, playstation без регистрации. У нас вы найдете новые Зарубежные сериалы и Русские сериалы 2013, 2014, 2015 годов. Оставайтесь с нами, качайте любимые фильмы, игры, сериалы, книги и музыку.
cron