img image001 image001 image001 image001 image001 image001 image001 image001 image001 image001 image001 image001 image001 image001 image001

Planets Sun Sun Sun
Статистика раздачи
Автор: PriZraK | Размер: 3.14 ГБ | Добавлен: 15 фев 2014
Раздают: 176    Качают: 6
Скачать торрент
Скачать торрент
Описание торрента

СообщениеДобавлено: 15 фев 2014 




Страна: Россия, Марс Медиа Энтертеймен
Жанр: мелодрама
Год выпуска: 2012
Продолжительность: 4 серии ~ 46 мин.

Перевод: не требуется
Cубтитры: нет
Оригинальная аудиодорожка: русский

Режиссер: Тигран Кеосаян

Роли озвучивали: Надежда Михалкова, Евгений Пронин, Алексей Серебряков, Евгений Миллер, Андрей Калинин, Лариса Гузеева, Людмила Долгорукова, Игорь Ясулович, Александр Коршунов, Сергей Никоненко...

Описание: В детстве эти трое стояли друг за друга горой, в 90-х, еще учащиеся местной школы, они строили деревянные самолеты на уроке труда. Этому поколению запрещалось даже думать об Америке, они ездили целой школой в Макдоналдс и их наказывали за цитаты из песни Цоя. И судьба у этих ребят сложилась непростая…







Качество: DVDRip (DVD9 R5)
Формат: AVI

Видео: 720x400 (16:9), 25.000 fps, XViD ~ 2000 kbps avg, 0.278 bit/pixel
Аудио: 48 kHz, АС3 6 ch, 448 kbps, русский

Раздача от:
Общее
Полное имя : Tri.tovarishya.2012.O.DVDRip_[New-Team]_by_avproh\01.avi
Формат : AVI
Формат/Информация : Audio Video Interleave
Размер файла : 820 Мбайт
Продолжительность : 46 м.
Общий поток : 2457 Кбит/сек
Программа кодирования : VirtualDubMod 1.5.10.3 | www.virtualdub-fr.org || (build 2550/release)
Библиотека кодирования : VirtualDubMod build 2550/release

Видео
Идентификатор : 0
Формат : MPEG-4 Visual
Профиль формата : Advanced Simple@L5
Параметр BVOP формата : 1
Параметр QPel формата : Нет
Параметр GMC формата : Без точки перехода
Параметр матрицы формата : Выборочная
Идентификатор кодека : XVID
Идентификатор кодека/Подсказка : XviD
Продолжительность : 46 м.
Битрейт : 1999 Кбит/сек
Ширина : 720 пикселей
Высота : 400 пикселей
Соотношение сторон : 16:9
Частота кадров : 25,000 кадров/сек
Цветовое пространство : YUV
Субдискретизация насыщенности : 4:2:0
Битовая глубина : 8 бит
Тип развёртки : Прогрессивная
Метод сжатия : С потерями
Бит/(Пиксели*Кадры) : 0.278
Размер потока : 667 Мбайт (81%)
Библиотека кодирования : XviD 73

Аудио
Идентификатор : 1
Формат : AC-3
Формат/Информация : Audio Coding 3
Расширение режима : CM (complete main)
Параметр Endianness формата : Big
Идентификатор кодека : 2000
Продолжительность : 46 м.
Вид битрейта : Постоянный
Битрейт : 448 Кбит/сек
Каналы : 6 каналов
Расположение каналов : Front: L C R, Side: L R, LFE
Частота : 48,0 КГц
Битовая глубина : 16 бит
Метод сжатия : С потерями
Размер потока : 149 Мбайт (18%)
Выравнивание : Разделение по промежуткам
Продолжительность промежутка : 40 мс. (1,00 видеокадр)
Время предзагрузки промежутка : 500 мс.



http://alt.rutor.org/torrent/225688/

http://screenshotcomparison.com/comparison/49537 перекроп у конкурента, а картинку сами видите.



   Похожие торренты   Торрент   Размер 
В этой теме нет новых непрочитанных сообщений. Три товарища [01-04 из 04] (2012) DVDRip-AVC от New-Team | лицензия

1 | 4

3.13 ГБ

В этой теме нет новых непрочитанных сообщений. Три товарища [01-04 из 04] (2012) DVD9 R5 от New-Team | лицензия

0 | 4

6.57 ГБ

В этой теме нет новых непрочитанных сообщений. Три товарища (1935) DVDRip от New-Team

50 | 13

1.09 ГБ

В этой теме нет новых непрочитанных сообщений. Три товарища (1935) DVDRip от New-Team

11 | 4

744.93 МБ

В этой теме нет новых непрочитанных сообщений. Три товарища (1935) DVDRip-AVC от New-Team

23 | 10

1.09 ГБ

В этой теме нет новых непрочитанных сообщений. Честь товарища (1953) DVDRip от New-Team

14 | 9

1.09 ГБ

В этой теме нет новых непрочитанных сообщений. Честь товарища (1953) DVDRip-AVC от New-Team

29 | 8

1.09 ГБ




Вы не можете начинать темы
Вы не можете отвечать на сообщения
Вы не можете редактировать свои сообщения
Вы не можете удалять свои сообщения
Вы не можете добавлять вложения

Перейти:  
Для Мосгорсуда, Роскомнадзора и рекламодателей: mosgorsud-torrent[собачка]yandex.ru
 Вход
ppkBB3cker v.2 © 2008-2014 @ PPK
[ Time : 4.752s | 16 Queries | GZIP : Off ]

Торрент трекер RUTOR.IN, Не можете зайти на rutor.org? Какой новый адрес рутор? Какое зеркало рутор? Не работает rutor.org и зеркала? Тогда наш торрент специально для вас. Rutor.in неофициальное зеркало rutor. В случае если у Вас заблокирован rutor или вдруг Вы не можете на него зайти, то Вы без труда сможете скачать бесплатно и без рекламы последние новинки кино, игр, сериалов и прочего у нас, на Rutor.in. Не нужно использовать прокси, чтобы зайти на рутор, достаточно воспользоваться нашим ресурсом. Все новые фильмы, игры, сериалы, книги и музыка за 2013 и 2014 годы через торрент бесплатно. Скачивайте фильмы в хорошем качестве, игры для пк, xbox, playstation без регистрации. У нас вы найдете новые Зарубежные сериалы и Русские сериалы 2013, 2014, 2015 годов. Оставайтесь с нами, качайте любимые фильмы, игры, сериалы, книги и музыку.