img image001 image001 image001 image001 image001 image001 image001 image001 image001 image001 image001 image001 image001 image001 image001

Planets Sun Sun Sun
Статистика раздачи
Автор: PriZraK | Размер: 1.95 ГБ | Добавлен: 15 фев 2014
Раздают: 2    Качают: 3
Скачать торрент
Скачать торрент
Описание торрента

СообщениеДобавлено: 15 фев 2014 




Страна: Россия
Производство: Кинокомпания ВГТРК
Жанр: Боевик, криминал, мелодрама
Год выпуска: 2013

Продолжительность: 4 x ~ 00:45:00
Язык: Русский

Режиссер: Дмитрий Кузьмин

В ролях: Дмитрий Певцов, Никита Панфилов, Ирина Линдт, Сослан Фидаров, Людмила Гаврилова, Валентина Шарыкина, Игорь Воробьев, Михаил Окунев, Илья Трусковский, Евгения Гладий


Описание: Как известно, сапер ошибается только дважды, и первый раз при выборе профессии. Но сотрудник уникального подразделения московской полиции — Инженерно-Саперного отдела — майор Денис Крамер не представляет своей жизни без любимой работы. У Крамера сложный характер. Он неуступчив, принципиален, и не часто следует инструкциям и предписаниям. Но когда на кону стоят жизни людей, Крамер первым приходит на помощь. Всем известно — он ас своего дела, для которого него практически не существует невыполнимых задач…

Исходник: DVD9 R5

Тип релиза: DVDRip

Контейнер: AVI
Видео: 720x400 (1.80:1), 25 fps, XviD 1104 kbps avg, 0.15 bit/pixel
Аудио: 48 kHz, AC3 2.0 ~448.00 kbps avg
Общее
Полное имя : D:залитьТочка взрыва1 серия.avi
Формат : AVI
Формат/Информация : Audio Video Interleave
Размер файла : 500 Мбайт
Продолжительность : 44 м.
Общий поток : 1562 Кбит/сек
Программа кодирования : VirtualDubMod 1.5.10.3 | www.virtualdub-fr.org || (build 2550/release)
Библиотека кодирования : VirtualDubMod build 2550/release

Видео
Идентификатор : 0
Формат : MPEG-4 Visual
Профиль формата : Advanced Simple@L5
Параметр BVOP формата : 2
Параметр QPel формата : Нет
Параметр GMC формата : Без точки перехода
Параметр матрицы формата : Default (H.263)
Режим смешивания : Сжатый битовый поток
Идентификатор кодека : XVID
Идентификатор кодека/Подсказка : XviD
Продолжительность : 44 м.
Битрейт : 1105 Кбит/сек
Ширина : 720 пикселей
Высота : 400 пикселей
Соотношение сторон : 16:9
Частота кадров : 25,000 кадров/сек
Цветовое пространство : YUV
Субдискретизация насыщенности : 4:2:0
Битовая глубина : 8 бит
Тип развёртки : Прогрессивная
Метод сжатия : С потерями
Бит/(Пиксели*Кадры) : 0.153
Размер потока : 353 Мбайт (71%)
Библиотека кодирования : XviD 1.2.1 (UTC 2008-12-04)

Аудио
Идентификатор : 1
Формат : AC-3
Формат/Информация : Audio Coding 3
Расширение режима : CM (complete main)
Параметр Endianness формата : Big
Идентификатор кодека : 2000
Продолжительность : 44 м.
Вид битрейта : Постоянный
Битрейт : 448 Кбит/сек
Каналы : 2 канала
Расположение каналов : Front: L R
Частота : 48,0 КГц
Битовая глубина : 16 бит
Метод сжатия : С потерями
Размер потока : 143 Мбайт (29%)
Выравнивание : Разделение по промежуткам
Продолжительность промежутка : 40 мс. (1,00 видеокадр)
Время предзагрузки промежутка : 500 мс.


Автор рипа:



   Похожие торренты   Торрент   Размер 
В этой теме нет новых непрочитанных сообщений. Точка взрыва [01-04 из 04] (2013) DVDRip-AVC от New-Team

257 | 21

2.18 ГБ

В этой теме нет новых непрочитанных сообщений. Точка взрыва [01-04 из 04] (2013) DVDRip от New-Team

498 | 35

2.18 ГБ

В этой теме нет новых непрочитанных сообщений. Точка взрыва [01-04 из 04] (2013) DVB

17 | 2

3.66 ГБ

В этой теме нет новых непрочитанных сообщений. Точка взрыва [01-04 из 04] (2013) HDTVRip

79 | 7

2 ГБ

В этой теме нет новых непрочитанных сообщений. Точка взрыва [01-04 из 04] (2013) SatRip

18 | 3

1.95 ГБ

В этой теме нет новых непрочитанных сообщений. Точка взрыва [01-04 из 04] (2013) SATRip-AVC

9 | 2

2.36 ГБ

В этой теме нет новых непрочитанных сообщений. Точка взрыва [01-04 из 04] (2013) HDTVRip 720p

54 | 12

7.12 ГБ




Вы не можете начинать темы
Вы не можете отвечать на сообщения
Вы не можете редактировать свои сообщения
Вы не можете удалять свои сообщения
Вы не можете добавлять вложения

Перейти:  
Для Мосгорсуда, Роскомнадзора и рекламодателей: mosgorsud-torrent[собачка]yandex.ru
 Вход
ppkBB3cker v.2 © 2008-2014 @ PPK
[ Time : 0.050s | 14 Queries | GZIP : Off ]

Торрент трекер RUTOR.IN, Не можете зайти на rutor.org? Какой новый адрес рутор? Какое зеркало рутор? Не работает rutor.org и зеркала? Тогда наш торрент специально для вас. Rutor.in неофициальное зеркало rutor. В случае если у Вас заблокирован rutor или вдруг Вы не можете на него зайти, то Вы без труда сможете скачать бесплатно и без рекламы последние новинки кино, игр, сериалов и прочего у нас, на Rutor.in. Не нужно использовать прокси, чтобы зайти на рутор, достаточно воспользоваться нашим ресурсом. Все новые фильмы, игры, сериалы, книги и музыка за 2013 и 2014 годы через торрент бесплатно. Скачивайте фильмы в хорошем качестве, игры для пк, xbox, playstation без регистрации. У нас вы найдете новые Зарубежные сериалы и Русские сериалы 2013, 2014, 2015 годов. Оставайтесь с нами, качайте любимые фильмы, игры, сериалы, книги и музыку.