img image001 image001 image001 image001 image001 image001 image001 image001 image001 image001 image001 image001 image001 image001 image001

Planets Sun Sun Sun
Статистика раздачи
Автор: PriZraK | Размер: 55.03 ГБ | Добавлен: 15 фев 2014
Раздают: 0    Качают: 3
Скачать торрент
Скачать торрент
Описание торрента

СообщениеДобавлено: 15 фев 2014 

[url=http://changecopyright.ru][img]http://changecopyright.ru/bannersout/banner-468x60.png[/img][/url]
[img]http://i60.fastpic.ru/big/2013/1031/f7/1d88f5e5f5694ab2d764616caef2b5f7.jpg[/img]

Информация о фильме
[b]Название: [/b]Инспектор Джордж Джентли
[b]Оригинальное название: [/b]Inspector George Gently
[b]Год выхода: [/b]2007-2012
[b]Жанр: [/b] драма, криминал, детектив
[b]Режиссер: [/b]Киаран Доннели, Дэниэль О'Хара, Джайлз Маккинон, Николас Рентон
[b]В ролях: [/b]Мартин Шоу, Ли Инглби, Саймон Хаббард, Том Хатч, Тони Рор, Мелани Кларк Пуллен, Lisa Mcgrillis, Тим Дэнн, Кэти Андерсон, Крис Брэйлсфорд

[b]О фильме:[/b]
Старший инспектор Скотланд-Ярда Джордж Джентли, ветеран Второй мировой войны, известен своей борьбой против бандитизма и коррупции. После того как его жена Изабелла была убита отъявленным гангстером Джо Вебстером, Джентли решил уйти на пенсию. Но когда он услышал об убийстве в Нортумберленде, по стилю похожем на дело рук Вебстера, инспектор решил повременить с отставкой ради расследования этого последнего дела.

В паре с местным детективом Джоном Бахусом он выслеживает Вебстера, в то же время пытаясь удержать молодого и амбициозного напарника от неверных поступков. В итоге этого расследования Джордж Джентли решает продолжить службу, возглавив полицейский департамент уголовного розыска в графствах Нортумберленд и Дарем. Хроника событий с первого по пятый сезон затрагивает 1964—1968 годы.
[spoiler="Список серий"]
Сезон 1.
00: Gently Go Man
01: The Burning Man / Сгоревший человек
03: Bomber's Moon / Луна бомбардировщика

Сезон 2.
01: Gently with the Innocents / Джентли и невиновные
02: Gently in the Night / Джентли в ночи
03: Gently in the Blood / Джентли на крови
04: Gently Through the Mill / Происшествие на мельнице

Сезон 3.
01: Gently Evil / Семя зла
02: Peace & Love / Мир и любовь

Сезон 4.
01: Gently Upside Down / Вверх тормашками
02: Goodbye China / Прощай Чайна

Сезон 5.
01: Gently Northern Soul / Джентли и Северный Соул
02: Gently with Class / Джентли и аристократия
03: The Lost Child / Потерянный ребенок
04: Gently in the Cathedral / Джентли в соборе
[/spoiler]

[url=http://www.imdb.com/title/tt1430509/][img]http://s.rutor.org/imdb/pic/1430509.gif[/img][/url] [url=http://www.kinopoisk.ru/film/737625/][img]http://www.kinopoisk.ru/rating/737625.gif[/img][/url]
[b]Страна: [/b]Великобритания
[b]Продолжительность: [/b]15 x ~ 01:30:00
[b]Перевод: [/b]Профессиональный (многоголосый закадровый) студия "Позитив", 100ТВ

Файл
[b]Кодек: [/b]H.264
[b]Качество: [/b]BDRip 720p
[b]Видео: [/b]1278x720 (16:9), 25.000 fps, ~3950-7050 kbps
[b]Звук: [/b]
Аудио Rus: AC3, 48 kHz, 2 ch, ~192.00 kbps avg | студия "Позитив", 100ТВ
Аудио Eng: FLAC, 48 kHz/16-bit, 2 ch, ~567.00 kbps avg |Original|
Субтитры: Английские

[b]Релиз от:[/b] [img]http://i26.fastpic.ru/big/2012/0613/0e/e62468618b9cfc27af7952feb8720c0e.gif[/img] by [b][color=orange]delia[/color][/b]

[spoiler="Скрытый текст"]
Диски пересобраны из оригинальных Blu-ray.
Исходные диски приобретены в рамках сервиса от HDCLUB - "Копилка: Помоги с Blu-ray" (Сериалы). Спонсоры: lawyers, Кириллка, Vadkhub.
Русский звук взят с тв трансляции канала 100ТВ, спасибо Beer kolesik Drinkers, HPotter, Lexa1988-L1.
[/spoiler]

[spoiler="MI"]
Общее
Уникальный идентификатор : 203616690848154569098531119616855237386 (0x992F25F0F824F5ECA71B9BDFFFCDE30A)
Полное имя : George_Gently_HDCLUBGeorge.Gently.S01.720p.BluRay.Rus.Eng.HDCLUB-SbRInspector.George.Gently.S01.E01.720p.BluRay.Rus.Eng.HDCLUB-SbR.mkv
Формат : Matroska
Версия формата : Version 4 / Version 2
Размер файла : 5,08 Гбайт
Продолжительность : 1 ч. 29 м.
Режим общего битрейта : Переменный
Общий поток : 8160 Кбит/сек
Дата кодирования : UTC 2013-10-18 05:30:52
Программа кодирования : mkvmerge v6.4.1 ('Omega Point') built on Sep 16 2013 22:05:10
Библиотека кодирования : libebml v1.3.0 + libmatroska v1.4.1

Видео
Идентификатор : 1
Формат : AVC
Формат/Информация : Advanced Video Codec
Профиль формата : High@L4.1
Параметр CABAC формата : Да
Параметр ReFrames формата : 9 кадров
Идентификатор кодека : V_MPEG4/ISO/AVC
Продолжительность : 1 ч. 29 м.
Ширина : 1280 пикселей
Высота : 720 пикселей
Соотношение сторон : 16:9
Режим частоты кадров : Постоянный
Частота кадров : 25,000 кадров/сек
Цветовое пространство : YUV
Субдискретизация насыщенности : 4:2:0
Битовая глубина : 8 бит
Тип развёртки : Прогрессивная
Библиотека кодирования : x264 core 138 r2358kMod 9e941d1
Настройки программы : cabac=1 / ref=9 / deblock=1:-3:-3 / analyse=0x3:0x113 / me=umh / subme=10 / psy=1 / fade_compensate=0.00 / psy_rd=0.90:0.00 / mixed_ref=1 / me_range=32 / chroma_me=1 / trellis=2 / 8x8dct=1 / cqm=0 / deadzone=21,11 / fast_pskip=0 / chroma_qp_offset=-2 / threads=6 / lookahead_threads=1 / sliced_threads=0 / nr=0 / decimate=1 / interlaced=0 / bluray_compat=0 / constrained_intra=0 / bframes=12 / b_pyramid=2 / b_adapt=2 / b_bias=0 / direct=3 / weightb=1 / open_gop=0 / weightp=2 / keyint=250 / keyint_min=25 / scenecut=40 / intra_refresh=0 / rc_lookahead=40 / rc=crf / mbtree=0 / crf=18.0000 / qcomp=0.70 / qpmin=0 / qpmax=69 / qpstep=4 / vbv_maxrate=50000 / vbv_bufsize=62500 / crf_max=0.0 / nal_hrd=none / ip_ratio=1.40 / pb_ratio=1.30 / aq=1:0.85
Язык : English
Default : Да
Forced : Нет
Основные цвета : BT.709
Характеристики трансфера : BT.709
Коэффициенты матрицы : BT.709

Аудио #1
Идентификатор : 2
Формат : AC-3
Формат/Информация : Audio Coding 3
Расширение режима : CM (complete main)
Параметр Endianness формата : Big
Идентификатор кодека : A_AC3
Продолжительность : 1 ч. 29 м.
Вид битрейта : Постоянный
Битрейт : 192 Кбит/сек
Каналы : 2 канала
Расположение каналов : Front: L R
Частота : 48,0 КГц
Битовая глубина : 16 бит
Метод сжатия : С потерями
Размер потока : 122 Мбайт (2%)
Заголовок : Многоголосый закадровый, студия "Позитив", 100ТВ
Язык : Russian
Default : Да
Forced : Нет

Аудио #2
Идентификатор : 3
Формат : FLAC
Формат/Информация : Free Lossless Audio Codec
Идентификатор кодека : A_FLAC
Продолжительность : 1 ч. 29 м.
Вид битрейта : Переменный
Каналы : 2 канала
Частота : 48,0 КГц
Битовая глубина : 16 бит
Библиотека кодирования : libFLAC 1.2.1 (UTC 2007-09-17)
Язык : English
Default : Нет
Forced : Нет

Текст
Идентификатор : 4
Формат : UTF-8
Идентификатор кодека : S_TEXT/UTF8
Идентификатор кодека/Информация : UTF-8 Plain Text
Язык : English
Default : Нет
Forced : Нет

Меню
00:00:00.000 : en:00:00:00.000
00:10:45.544 : en:00:10:45.544
00:15:31.997 : en:00:15:31.997
00:26:12.971 : en:00:26:12.971
00:36:07.465 : en:00:36:07.465
00:45:31.495 : en:00:45:31.495
00:54:46.816 : en:00:54:46.816
01:04:10.980 : en:01:04:10.980
01:11:30.019 : en:01:11:30.019
01:22:56.371 : en:01:22:56.371

Общее
Уникальный идентификатор : 174578554498648096122072648912126293381 (0x83569B488B2DDB7E8BCB0BFB92433585)
Полное имя : George_Gently_HDCLUBGeorge.Gently.S01.720p.BluRay.Rus.Eng.HDCLUB-SbRInspector.George.Gently.S01.E02.720p.BluRay.Rus.Eng.HDCLUB-SbR.mkv
Формат : Matroska
Версия формата : Version 4 / Version 2
Размер файла : 4,24 Гбайт
Продолжительность : 1 ч. 28 м.
Режим общего битрейта : Переменный
Общий поток : 6862 Кбит/сек
Дата кодирования : UTC 2013-10-24 06:49:07
Программа кодирования : mkvmerge v6.5.0 ('Isn't she lovely') built on Oct 20 2013 12:50:05
Библиотека кодирования : libebml v1.3.0 + libmatroska v1.4.1

Видео
Идентификатор : 1
Формат : AVC
Формат/Информация : Advanced Video Codec
Профиль формата : High@L4.1
Параметр CABAC формата : Да
Параметр ReFrames формата : 9 кадров
Идентификатор кодека : V_MPEG4/ISO/AVC
Продолжительность : 1 ч. 28 м.
Ширина : 1278 пикселей
Высота : 720 пикселей
Соотношение сторон : 16:9
Режим частоты кадров : Постоянный
Частота кадров : 25,000 кадров/сек
Частота кадров в оригинале : 23,976 кадра/сек
Цветовое пространство : YUV
Субдискретизация насыщенности : 4:2:0
Битовая глубина : 8 бит
Тип развёртки : Прогрессивная
Библиотека кодирования : x264 core 138 r2358kMod 9e941d1
Настройки программы : cabac=1 / ref=9 / deblock=1:-3:-3 / analyse=0x3:0x113 / me=umh / subme=10 / psy=1 / fade_compensate=0.00 / psy_rd=0.90:0.00 / mixed_ref=1 / me_range=32 / chroma_me=1 / trellis=2 / 8x8dct=1 / cqm=0 / deadzone=21,11 / fast_pskip=0 / chroma_qp_offset=-2 / threads=6 / lookahead_threads=1 / sliced_threads=0 / nr=0 / decimate=1 / interlaced=0 / bluray_compat=0 / constrained_intra=0 / bframes=12 / b_pyramid=2 / b_adapt=2 / b_bias=0 / direct=3 / weightb=1 / open_gop=0 / weightp=2 / keyint=250 / keyint_min=23 / scenecut=40 / intra_refresh=0 / rc_lookahead=40 / rc=crf / mbtree=0 / crf=18.0000 / qcomp=0.70 / qpmin=0 / qpmax=69 / qpstep=4 / vbv_maxrate=50000 / vbv_bufsize=62500 / crf_max=0.0 / nal_hrd=none / ip_ratio=1.40 / pb_ratio=1.30 / aq=1:0.85
Язык : English
Default : Да
Forced : Нет
Основные цвета : BT.709
Характеристики трансфера : BT.709
Коэффициенты матрицы : BT.709

Аудио #1
Идентификатор : 2
Формат : AC-3
Формат/Информация : Audio Coding 3
Расширение режима : CM (complete main)
Параметр Endianness формата : Big
Идентификатор кодека : A_AC3
Продолжительность : 1 ч. 28 м.
Вид битрейта : Постоянный
Битрейт : 192 Кбит/сек
Каналы : 2 канала
Расположение каналов : Front: L R
Частота : 48,0 КГц
Битовая глубина : 16 бит
Метод сжатия : С потерями
Размер потока : 121 Мбайт (3%)
Язык : Russian
Default : Да
Forced : Нет

Аудио #2
Идентификатор : 3
Формат : FLAC
Формат/Информация : Free Lossless Audio Codec
Идентификатор кодека : A_FLAC
Продолжительность : 1 ч. 28 м.
Вид битрейта : Переменный
Каналы : 2 канала
Частота : 48,0 КГц
Битовая глубина : 16 бит
Библиотека кодирования : libFLAC 1.2.1 (UTC 2007-09-17)
Язык : English
Default : Нет
Forced : Нет

Текст
Идентификатор : 4
Формат : UTF-8
Идентификатор кодека : S_TEXT/UTF8
Идентификатор кодека/Информация : UTF-8 Plain Text
Заголовок : Многоголосый закадровый, студия "Позитив", 100ТВ
Язык : English
Default : Нет
Forced : Нет

Меню
00:00:00.000 : en:00:00:00.000
00:05:23.990 : en:00:05:23.990
00:14:57.530 : en:00:14:57.530
00:19:57.997 : en:00:19:57.997
00:32:33.552 : en:00:32:33.552
00:39:25.463 : en:00:39:25.463
00:50:40.037 : en:00:50:40.037
00:59:40.977 : en:00:59:40.977
01:08:29.472 : en:01:08:29.472
01:20:40.536 : en:01:20:40.536

Общее
Уникальный идентификатор : 191706532888393576422804693761408660118 (0x903955D1234E8B5CB2BB977329947296)
Полное имя : George_Gently_HDCLUBGeorge.Gently.S01.720p.BluRay.Rus.Eng.HDCLUB-SbRInspector.George.Gently.S01.E03.720p.BluRay.Rus.Eng.HDCLUB-SbR.mkv
Формат : Matroska
Версия формата : Version 4 / Version 2
Размер файла : 4,44 Гбайт
Продолжительность : 1 ч. 28 м.
Режим общего битрейта : Переменный
Общий поток : 7220 Кбит/сек
Дата кодирования : UTC 2013-10-25 05:36:04
Программа кодирования : mkvmerge v6.5.0 ('Isn't she lovely') built on Oct 20 2013 12:50:05
Библиотека кодирования : libebml v1.3.0 + libmatroska v1.4.1

Видео
Идентификатор : 1
Формат : AVC
Формат/Информация : Advanced Video Codec
Профиль формата : High@L4.1
Параметр CABAC формата : Да
Параметр ReFrames формата : 9 кадров
Идентификатор кодека : V_MPEG4/ISO/AVC
Продолжительность : 1 ч. 28 м.
Ширина : 1278 пикселей
Высота : 720 пикселей
Соотношение сторон : 16:9
Режим частоты кадров : Постоянный
Частота кадров : 25,000 кадров/сек
Цветовое пространство : YUV
Субдискретизация насыщенности : 4:2:0
Битовая глубина : 8 бит
Тип развёртки : Прогрессивная
Библиотека кодирования : x264 core 138 r2358kMod 9e941d1
Настройки программы : cabac=1 / ref=9 / deblock=1:-3:-3 / analyse=0x3:0x113 / me=umh / subme=10 / psy=1 / fade_compensate=0.00 / psy_rd=0.90:0.00 / mixed_ref=1 / me_range=32 / chroma_me=1 / trellis=2 / 8x8dct=1 / cqm=0 / deadzone=21,11 / fast_pskip=0 / chroma_qp_offset=-2 / threads=6 / lookahead_threads=1 / sliced_threads=0 / nr=0 / decimate=1 / interlaced=0 / bluray_compat=0 / constrained_intra=0 / bframes=12 / b_pyramid=2 / b_adapt=2 / b_bias=0 / direct=3 / weightb=1 / open_gop=0 / weightp=2 / keyint=250 / keyint_min=25 / scenecut=40 / intra_refresh=0 / rc_lookahead=40 / rc=crf / mbtree=0 / crf=18.0000 / qcomp=0.70 / qpmin=0 / qpmax=69 / qpstep=4 / vbv_maxrate=50000 / vbv_bufsize=62500 / crf_max=0.0 / nal_hrd=none / ip_ratio=1.40 / pb_ratio=1.30 / aq=1:0.85
Язык : English
Default : Да
Forced : Нет
Основные цвета : BT.709
Характеристики трансфера : BT.709
Коэффициенты матрицы : BT.709

Аудио #1
Идентификатор : 2
Формат : AC-3
Формат/Информация : Audio Coding 3
Расширение режима : CM (complete main)
Параметр Endianness формата : Big
Идентификатор кодека : A_AC3
Продолжительность : 1 ч. 28 м.
Вид битрейта : Постоянный
Битрейт : 192 Кбит/сек
Каналы : 2 канала
Расположение каналов : Front: L R
Частота : 48,0 КГц
Битовая глубина : 16 бит
Метод сжатия : С потерями
Размер потока : 121 Мбайт (3%)
Заголовок : Многоголосый закадровый, студия "Позитив", 100ТВ
Язык : Russian
Default : Да
Forced : Нет

Аудио #2
Идентификатор : 3
Формат : FLAC
Формат/Информация : Free Lossless Audio Codec
Идентификатор кодека : A_FLAC
Продолжительность : 1 ч. 28 м.
Вид битрейта : Переменный
Каналы : 2 канала
Частота : 48,0 КГц
Битовая глубина : 16 бит
Библиотека кодирования : libFLAC 1.2.1 (UTC 2007-09-17)
Язык : English
Default : Нет
Forced : Нет

Текст
Идентификатор : 4
Формат : UTF-8
Идентификатор кодека : S_TEXT/UTF8
Идентификатор кодека/Информация : UTF-8 Plain Text
Язык : English
Default : Нет
Forced : Нет

Меню
00:00:00.000 : en:00:00:00.000
00:06:40.000 : en:00:06:40.000
00:13:34.013 : en:00:13:34.013
00:27:05.958 : en:00:27:05.958
00:35:45.010 : en:00:35:45.010
00:42:50.535 : en:00:42:50.535
00:51:27.017 : en:00:51:27.017
00:57:43.493 : en:00:57:43.493
01:07:56.539 : en:01:07:56.539
01:16:26.015 : en:01:16:26.015

Общее
Уникальный идентификатор : 231632716709013988148667661162423759263 (0xAE42D6A94F5C1E8FA11A8DD8DCE7B19F)
Полное имя : George_Gently_HDCLUBGeorge.Gently.S02.720p.BluRay.Rus.Eng.HDCLUB-SbRInspector.George.Gently.S01.E01.720p.BluRay.Rus.Eng.HDCLUB-SbR.mkv
Формат : Matroska
Версия формата : Version 4 / Version 2
Размер файла : 3,35 Гбайт
Продолжительность : 1 ч. 29 м.
Режим общего битрейта : Переменный
Общий поток : 5376 Кбит/сек
Дата кодирования : UTC 2013-10-28 09:58:16
Программа кодирования : mkvmerge v6.5.0 ('Isn't she lovely') built on Oct 20 2013 12:50:05
Библиотека кодирования : libebml v1.3.0 + libmatroska v1.4.1

Видео
Идентификатор : 1
Формат : AVC
Формат/Информация : Advanced Video Codec
Профиль формата : High@L4.1
Параметр CABAC формата : Да
Параметр ReFrames формата : 9 кадров
Идентификатор кодека : V_MPEG4/ISO/AVC
Продолжительность : 1 ч. 29 м.
Ширина : 1278 пикселей
Высота : 720 пикселей
Соотношение сторон : 16:9
Режим частоты кадров : Постоянный
Частота кадров : 25,000 кадров/сек
Цветовое пространство : YUV
Субдискретизация насыщенности : 4:2:0
Битовая глубина : 8 бит
Тип развёртки : Прогрессивная
Библиотека кодирования : x264 core 138 r2358kMod 9e941d1
Настройки программы : cabac=1 / ref=9 / deblock=1:-3:-3 / analyse=0x3:0x113 / me=umh / subme=10 / psy=1 / fade_compensate=0.00 / psy_rd=0.90:0.00 / mixed_ref=1 / me_range=32 / chroma_me=1 / trellis=2 / 8x8dct=1 / cqm=0 / deadzone=21,11 / fast_pskip=0 / chroma_qp_offset=-2 / threads=6 / lookahead_threads=1 / sliced_threads=0 / nr=0 / decimate=1 / interlaced=0 / bluray_compat=0 / constrained_intra=0 / bframes=12 / b_pyramid=2 / b_adapt=2 / b_bias=0 / direct=3 / weightb=1 / open_gop=0 / weightp=2 / keyint=250 / keyint_min=25 / scenecut=40 / intra_refresh=0 / rc_lookahead=40 / rc=crf / mbtree=0 / crf=18.0000 / qcomp=0.70 / qpmin=0 / qpmax=69 / qpstep=4 / vbv_maxrate=50000 / vbv_bufsize=62500 / crf_max=0.0 / nal_hrd=none / ip_ratio=1.40 / pb_ratio=1.30 / aq=1:0.85
Язык : English
Default : Да
Forced : Нет
Основные цвета : BT.709
Характеристики трансфера : BT.709
Коэффициенты матрицы : BT.709

Аудио #1
Идентификатор : 2
Формат : AC-3
Формат/Информация : Audio Coding 3
Расширение режима : CM (complete main)
Параметр Endianness формата : Big
Идентификатор кодека : A_AC3
Продолжительность : 1 ч. 29 м.
Вид битрейта : Постоянный
Битрейт : 192 Кбит/сек
Каналы : 2 канала
Расположение каналов : Front: L R
Частота : 48,0 КГц
Битовая глубина : 16 бит
Метод сжатия : С потерями
Размер потока : 123 Мбайт (4%)
Заголовок : Многоголосый закадровый, студия "Позитив", 100ТВ
Язык : Russian
Default : Да
Forced : Нет

Аудио #2
Идентификатор : 3
Формат : FLAC
Формат/Информация : Free Lossless Audio Codec
Идентификатор кодека : A_FLAC
Продолжительность : 1 ч. 29 м.
Вид битрейта : Переменный
Каналы : 2 канала
Частота : 48,0 КГц
Битовая глубина : 16 бит
Библиотека кодирования : libFLAC 1.2.1 (UTC 2007-09-17)
Язык : English
Default : Нет
Forced : Нет

Текст
Идентификатор : 4
Формат : UTF-8
Идентификатор кодека : S_TEXT/UTF8
Идентификатор кодека/Информация : UTF-8 Plain Text
Язык : English
Default : Нет
Forced : Нет

Меню
00:00:00.000 : en:00:00:00.000
00:08:05.451 : en:00:08:05.451
00:16:34.660 : en:00:16:34.660
00:24:29.734 : en:00:24:29.734
00:33:21.332 : en:00:33:21.332
00:42:42.927 : en:00:42:42.927
00:50:59.389 : en:00:50:59.389
01:01:12.535 : en:01:01:12.535
01:10:05.167 : en:01:10:05.167
01:17:42.324 : en:01:17:42.324

Общее
Уникальный идентификатор : 195661300945520427384198558411338371789 (0x9332FEEFB08DE14EA6D2FE6091DD52CD)
Полное имя : George_Gently_HDCLUBGeorge.Gently.S02.720p.BluRay.Rus.Eng.HDCLUB-SbRInspector.George.Gently.S01.E02.720p.BluRay.Rus.Eng.HDCLUB-SbR .mkv
Формат : Matroska
Версия формата : Version 4 / Version 2
Размер файла : 3,77 Гбайт
Продолжительность : 1 ч. 28 м.
Режим общего битрейта : Переменный
Общий поток : 6080 Кбит/сек
Дата кодирования : UTC 2013-10-28 09:33:52
Программа кодирования : mkvmerge v6.5.0 ('Isn't she lovely') built on Oct 20 2013 12:50:05
Библиотека кодирования : libebml v1.3.0 + libmatroska v1.4.1

Видео
Идентификатор : 1
Формат : AVC
Формат/Информация : Advanced Video Codec
Профиль формата : High@L4.1
Параметр CABAC формата : Да
Параметр ReFrames формата : 9 кадров
Идентификатор кодека : V_MPEG4/ISO/AVC
Продолжительность : 1 ч. 28 м.
Ширина : 1278 пикселей
Высота : 720 пикселей
Соотношение сторон : 16:9
Режим частоты кадров : Постоянный
Частота кадров : 25,000 кадров/сек
Цветовое пространство : YUV
Субдискретизация насыщенности : 4:2:0
Битовая глубина : 8 бит
Тип развёртки : Прогрессивная
Библиотека кодирования : x264 core 138 r2358kMod 9e941d1
Настройки программы : cabac=1 / ref=9 / deblock=1:-3:-3 / analyse=0x3:0x113 / me=umh / subme=10 / psy=1 / fade_compensate=0.00 / psy_rd=0.90:0.00 / mixed_ref=1 / me_range=32 / chroma_me=1 / trellis=2 / 8x8dct=1 / cqm=0 / deadzone=21,11 / fast_pskip=0 / chroma_qp_offset=-2 / threads=6 / lookahead_threads=1 / sliced_threads=0 / nr=0 / decimate=1 / interlaced=0 / bluray_compat=0 / constrained_intra=0 / bframes=12 / b_pyramid=2 / b_adapt=2 / b_bias=0 / direct=3 / weightb=1 / open_gop=0 / weightp=2 / keyint=250 / keyint_min=25 / scenecut=40 / intra_refresh=0 / rc_lookahead=40 / rc=crf / mbtree=0 / crf=18.0000 / qcomp=0.70 / qpmin=0 / qpmax=69 / qpstep=4 / vbv_maxrate=50000 / vbv_bufsize=62500 / crf_max=0.0 / nal_hrd=none / ip_ratio=1.40 / pb_ratio=1.30 / aq=1:0.85
Язык : English
Default : Да
Forced : Нет
Основные цвета : BT.709
Характеристики трансфера : BT.709
Коэффициенты матрицы : BT.709

Аудио #1
Идентификатор : 2
Формат : AC-3
Формат/Информация : Audio Coding 3
Расширение режима : CM (complete main)
Параметр Endianness формата : Big
Идентификатор кодека : A_AC3
Продолжительность : 1 ч. 28 м.
Вид битрейта : Постоянный
Битрейт : 192 Кбит/сек
Каналы : 2 канала
Расположение каналов : Front: L R
Частота : 48,0 КГц
Битовая глубина : 16 бит
Метод сжатия : С потерями
Размер потока : 122 Мбайт (3%)
Заголовок : Многоголосый закадровый, студия "Позитив", 100ТВ
Язык : Russian
Default : Да
Forced : Нет

Аудио #2
Идентификатор : 3
Формат : FLAC
Формат/Информация : Free Lossless Audio Codec
Идентификатор кодека : A_FLAC
Продолжительность : 1 ч. 28 м.
Вид битрейта : Переменный
Каналы : 2 канала
Частота : 48,0 КГц
Битовая глубина : 16 бит
Библиотека кодирования : libFLAC 1.2.1 (UTC 2007-09-17)
Язык : English
Default : Нет
Forced : Нет

Текст
Идентификатор : 4
Формат : UTF-8
Идентификатор кодека : S_TEXT/UTF8
Идентификатор кодека/Информация : UTF-8 Plain Text
Язык : English
Default : Нет
Forced : Нет

Меню
00:00:00.000 : en:00:00:00.000
00:08:51.230 : en:00:08:51.230
00:18:18.230 : en:00:18:18.230
00:26:16.875 : en:00:26:16.875
00:34:00.738 : en:00:34:00.738
00:42:06.190 : en:00:42:06.190
00:49:53.323 : en:00:49:53.323
00:59:42.245 : en:00:59:42.245
01:07:16.966 : en:01:07:16.966
01:16:18.941 : en:01:16:18.941
01:28:26.067 : en:01:28:26.067

Общее
Уникальный идентификатор : 248680088845949264625419572355035588053 (0xBB160AFFF595A862A34E8804589C65D5)
Полное имя : George_Gently_HDCLUBGeorge.Gently.S02.720p.BluRay.Rus.Eng.HDCLUB-SbRInspector.George.Gently.S01.E03.720p.BluRay.Rus.Eng.HDCLUB-SbR .mkv
Формат : Matroska
Версия формата : Version 4 / Version 2
Размер файла : 4,62 Гбайт
Продолжительность : 1 ч. 29 м.
Режим общего битрейта : Переменный
Общий поток : 7390 Кбит/сек
Дата кодирования : UTC 2013-10-29 07:37:40
Программа кодирования : mkvmerge v6.5.0 ('Isn't she lovely') built on Oct 20 2013 12:50:05
Библиотека кодирования : libebml v1.3.0 + libmatroska v1.4.1

Видео
Идентификатор : 1
Формат : AVC
Формат/Информация : Advanced Video Codec
Профиль формата : High@L4.1
Параметр CABAC формата : Да
Параметр ReFrames формата : 9 кадров
Идентификатор кодека : V_MPEG4/ISO/AVC
Продолжительность : 1 ч. 29 м.
Ширина : 1278 пикселей
Высота : 720 пикселей
Соотношение сторон : 16:9
Режим частоты кадров : Постоянный
Частота кадров : 25,000 кадров/сек
Цветовое пространство : YUV
Субдискретизация насыщенности : 4:2:0
Битовая глубина : 8 бит
Тип развёртки : Прогрессивная
Библиотека кодирования : x264 core 138 r2358kMod 9e941d1
Настройки программы : cabac=1 / ref=9 / deblock=1:-3:-3 / analyse=0x3:0x113 / me=umh / subme=10 / psy=1 / fade_compensate=0.00 / psy_rd=0.90:0.00 / mixed_ref=1 / me_range=32 / chroma_me=1 / trellis=2 / 8x8dct=1 / cqm=0 / deadzone=21,11 / fast_pskip=0 / chroma_qp_offset=-2 / threads=6 / lookahead_threads=1 / sliced_threads=0 / nr=0 / decimate=1 / interlaced=0 / bluray_compat=0 / constrained_intra=0 / bframes=12 / b_pyramid=2 / b_adapt=2 / b_bias=0 / direct=3 / weightb=1 / open_gop=0 / weightp=2 / keyint=250 / keyint_min=25 / scenecut=40 / intra_refresh=0 / rc_lookahead=40 / rc=crf / mbtree=0 / crf=18.0000 / qcomp=0.70 / qpmin=0 / qpmax=69 / qpstep=4 / vbv_maxrate=50000 / vbv_bufsize=62500 / crf_max=0.0 / nal_hrd=none / ip_ratio=1.40 / pb_ratio=1.30 / aq=1:0.85
Язык : English
Default : Да
Forced : Нет
Основные цвета : BT.709
Характеристики трансфера : BT.709
Коэффициенты матрицы : BT.709

Аудио #1
Идентификатор : 2
Формат : AC-3
Формат/Информация : Audio Coding 3
Расширение режима : CM (complete main)
Параметр Endianness формата : Big
Идентификатор кодека : A_AC3
Продолжительность : 1 ч. 29 м.
Вид битрейта : Постоянный
Битрейт : 192 Кбит/сек
Каналы : 2 канала
Расположение каналов : Front: L R
Частота : 48,0 КГц
Битовая глубина : 16 бит
Метод сжатия : С потерями
Размер потока : 123 Мбайт (3%)
Заголовок : Многоголосый закадровый, студия "Позитив", 100ТВ
Язык : Russian
Default : Да
Forced : Нет

Аудио #2
Идентификатор : 3
Формат : FLAC
Формат/Информация : Free Lossless Audio Codec
Идентификатор кодека : A_FLAC
Продолжительность : 1 ч. 29 м.
Вид битрейта : Переменный
Каналы : 2 канала
Частота : 48,0 КГц
Битовая глубина : 16 бит
Библиотека кодирования : libFLAC 1.2.1 (UTC 2007-09-17)
Язык : English
Default : Нет
Forced : Нет

Текст
Идентификатор : 4
Формат : UTF-8
Идентификатор кодека : S_TEXT/UTF8
Идентификатор кодека/Информация : UTF-8 Plain Text
Язык : English
Default : Нет
Forced : Нет

Меню
00:00:00.000 : en:00:00:00.000
00:07:47.200 : en:00:07:47.200
00:16:48.708 : en:00:16:48.708
00:26:00.893 : en:00:26:00.893
00:34:01.039 : en:00:34:01.039
00:42:36.888 : en:00:42:36.888
00:51:12.803 : en:00:51:12.803
00:59:11.181 : en:00:59:11.181
01:10:04.534 : en:01:10:04.534
01:17:24.974 : en:01:17:24.974

Общее
Уникальный идентификатор : 238469401383473789909515063068787654615 (0xB367893D7C6FACBF965E02302636BFD7)
Полное имя : George_Gently_HDCLUBGeorge.Gently.S02.720p.BluRay.Rus.Eng.HDCLUB-SbRInspector.George.Gently.S01.E04.720p.BluRay.Rus.Eng.HDCLUB-SbR .mkv
Формат : Matroska
Версия формата : Version 4 / Version 2
Размер файла : 3,97 Гбайт
Продолжительность : 1 ч. 31 м.
Режим общего битрейта : Переменный
Общий поток : 6184 Кбит/сек
Дата кодирования : UTC 2013-10-30 05:41:36
Программа кодирования : mkvmerge v6.5.0 ('Isn't she lovely') built on Oct 20 2013 12:50:05
Библиотека кодирования : libebml v1.3.0 + libmatroska v1.4.1

Видео
Идентификатор : 1
Формат : AVC
Формат/Информация : Advanced Video Codec
Профиль формата : High@L4.1
Параметр CABAC формата : Да
Параметр ReFrames формата : 9 кадров
Идентификатор кодека : V_MPEG4/ISO/AVC
Продолжительность : 1 ч. 31 м.
Ширина : 1278 пикселей
Высота : 720 пикселей
Соотношение сторон : 16:9
Режим частоты кадров : Постоянный
Частота кадров : 25,000 кадров/сек
Цветовое пространство : YUV
Субдискретизация насыщенности : 4:2:0
Битовая глубина : 8 бит
Тип развёртки : Прогрессивная
Библиотека кодирования : x264 core 138 r2358kMod 9e941d1
Настройки программы : cabac=1 / ref=9 / deblock=1:-3:-3 / analyse=0x3:0x113 / me=umh / subme=10 / psy=1 / fade_compensate=0.00 / psy_rd=0.90:0.00 / mixed_ref=1 / me_range=32 / chroma_me=1 / trellis=2 / 8x8dct=1 / cqm=0 / deadzone=21,11 / fast_pskip=0 / chroma_qp_offset=-2 / threads=6 / lookahead_threads=1 / sliced_threads=0 / nr=0 / decimate=1 / interlaced=0 / bluray_compat=0 / constrained_intra=0 / bframes=12 / b_pyramid=2 / b_adapt=2 / b_bias=0 / direct=3 / weightb=1 / open_gop=0 / weightp=2 / keyint=250 / keyint_min=25 / scenecut=40 / intra_refresh=0 / rc_lookahead=40 / rc=crf / mbtree=0 / crf=18.0000 / qcomp=0.70 / qpmin=0 / qpmax=69 / qpstep=4 / vbv_maxrate=50000 / vbv_bufsize=62500 / crf_max=0.0 / nal_hrd=none / ip_ratio=1.40 / pb_ratio=1.30 / aq=1:0.85
Язык : English
Default : Да
Forced : Нет
Основные цвета : BT.709
Характеристики трансфера : BT.709
Коэффициенты матрицы : BT.709

Аудио #1
Идентификатор : 2
Формат : AC-3
Формат/Информация : Audio Coding 3
Расширение режима : CM (complete main)
Параметр Endianness формата : Big
Идентификатор кодека : A_AC3
Продолжительность : 1 ч. 31 м.
Вид битрейта : Постоянный
Битрейт : 192 Кбит/сек
Каналы : 2 канала
Расположение каналов : Front: L R
Частота : 48,0 КГц
Битовая глубина : 16 бит
Метод сжатия : С потерями
Размер потока : 126 Мбайт (3%)
Заголовок : Многоголосый закадровый, студия "Позитив", 100ТВ
Язык : Russian
Default : Да
Forced : Нет

Аудио #2
Идентификатор : 3
Формат : FLAC
Формат/Информация : Free Lossless Audio Codec
Идентификатор кодека : A_FLAC
Продолжительность : 1 ч. 31 м.
Вид битрейта : Переменный
Каналы : 2 канала
Частота : 48,0 КГц
Битовая глубина : 16 бит
Библиотека кодирования : libFLAC 1.2.1 (UTC 2007-09-17)
Язык : English
Default : Нет
Forced : Нет

Текст
Идентификатор : 4
Формат : UTF-8
Идентификатор кодека : S_TEXT/UTF8
Идентификатор кодека/Информация : UTF-8 Plain Text
Язык : English
Default : Нет
Forced : Нет

Меню
00:00:00.000 : en:00:00:00.000
00:09:09.015 : en:00:09:09.015
00:17:50.736 : en:00:17:50.736
00:27:12.264 : en:00:27:12.264
00:34:55.760 : en:00:34:55.760
00:44:02.974 : en:00:44:02.974
00:51:50.607 : en:00:51:50.607
01:00:28.625 : en:01:00:28.625
01:09:14.150 : en:01:09:14.150
01:17:29.645 : en:01:17:29.645

Общее
Уникальный идентификатор : 229382412482460746842057243904458243692 (0xAC917218D7D5245EB91C616B87F23E6C)
Полное имя : George_Gently_HDCLUBGeorge.Gently.S03.720p.BluRay.Rus.Eng.HDCLUB-SbRInspector.George.Gently.S03.E01.720p.BluRay.Rus.Eng.HDCLUB-SbR.mkv
Формат : Matroska
Версия формата : Version 4 / Version 2
Размер файла : 2,81 Гбайт
Продолжительность : 1 ч. 29 м.
Режим общего битрейта : Переменный
Общий поток : 4517 Кбит/сек
Дата кодирования : UTC 2013-10-31 07:04:08
Программа кодирования : mkvmerge v6.5.0 ('Isn't she lovely') built on Oct 20 2013 12:50:05
Библиотека кодирования : libebml v1.3.0 + libmatroska v1.4.1

Видео
Идентификатор : 1
Формат : AVC
Формат/Информация : Advanced Video Codec
Профиль формата : High@L4.1
Параметр CABAC формата : Да
Параметр ReFrames формата : 9 кадров
Идентификатор кодека : V_MPEG4/ISO/AVC
Продолжительность : 1 ч. 29 м.
Ширина : 1278 пикселей
Высота : 720 пикселей
Соотношение сторон : 16:9
Режим частоты кадров : Постоянный
Частота кадров : 25,000 кадров/сек
Цветовое пространство : YUV
Субдискретизация насыщенности : 4:2:0
Битовая глубина : 8 бит
Тип развёртки : Прогрессивная
Библиотека кодирования : x264 core 138 r2358kMod 9e941d1
Настройки программы : cabac=1 / ref=9 / deblock=1:-3:-3 / analyse=0x3:0x113 / me=umh / subme=10 / psy=1 / fade_compensate=0.00 / psy_rd=1.00:0.00 / mixed_ref=1 / me_range=32 / chroma_me=1 / trellis=2 / 8x8dct=1 / cqm=0 / deadzone=21,11 / fast_pskip=0 / chroma_qp_offset=-2 / threads=6 / lookahead_threads=1 / sliced_threads=0 / nr=0 / decimate=1 / interlaced=0 / bluray_compat=0 / constrained_intra=0 / bframes=12 / b_pyramid=2 / b_adapt=2 / b_bias=0 / direct=3 / weightb=1 / open_gop=0 / weightp=2 / keyint=250 / keyint_min=25 / scenecut=40 / intra_refresh=0 / rc_lookahead=40 / rc=crf / mbtree=0 / crf=16.7500 / qcomp=0.70 / qpmin=0 / qpmax=69 / qpstep=4 / vbv_maxrate=50000 / vbv_bufsize=62500 / crf_max=0.0 / nal_hrd=none / ip_ratio=1.40 / pb_ratio=1.30 / aq=1:0.85
Язык : English
Default : Да
Forced : Нет
Основные цвета : BT.709
Характеристики трансфера : BT.709
Коэффициенты матрицы : BT.709

Аудио #1
Идентификатор : 2
Формат : AC-3
Формат/Информация : Audio Coding 3
Расширение режима : CM (complete main)
Параметр Endianness формата : Big
Идентификатор кодека : A_AC3
Продолжительность : 1 ч. 29 м.
Вид битрейта : Постоянный
Битрейт : 192 Кбит/сек
Каналы : 2 канала
Расположение каналов : Front: L R
Частота : 48,0 КГц
Битовая глубина : 16 бит
Метод сжатия : С потерями
Размер потока : 122 Мбайт (4%)
Заголовок : Многоголосый закадровый, студия "Позитив", 100ТВ
Язык : Russian
Default : Да
Forced : Нет

Аудио #2
Идентификатор : 3
Формат : FLAC
Формат/Информация : Free Lossless Audio Codec
Идентификатор кодека : A_FLAC
Продолжительность : 1 ч. 29 м.
Вид битрейта : Переменный
Каналы : 2 канала
Частота : 48,0 КГц
Битовая глубина : 16 бит
Библиотека кодирования : libFLAC 1.2.1 (UTC 2007-09-17)
Язык : English
Default : Нет
Forced : Нет

Текст
Идентификатор : 4
Формат : UTF-8
Идентификатор кодека : S_TEXT/UTF8
Идентификатор кодека/Информация : UTF-8 Plain Text
Язык : English
Default : Нет
Forced : Нет

Меню
00:00:00.000 : en:00:00:00.000
00:10:33.500 : en:00:10:33.500
00:18:17.763 : en:00:18:17.763
00:28:24.503 : en:00:28:24.503
00:38:38.016 : en:00:38:38.016
00:47:41.492 : en:00:47:41.492
00:55:38.001 : en:00:55:38.001
01:04:45.315 : en:01:04:45.315
01:14:05.007 : en:01:14:05.007
01:23:41.183 : en:01:23:41.183
01:28:23.765 : en:01:28:23.765

Общее
Уникальный идентификатор : 223572952520705135592878561765718381076 (0xA832959B55ADD8C9B6F4F89685825214)
Полное имя : George_Gently_HDCLUBGeorge.Gently.S03.720p.BluRay.Rus.Eng.HDCLUB-SbRInspector.George.Gently.S03.E02.720p.BluRay.Rus.Eng.HDCLUB-SbR.mkv
Формат : Matroska
Версия формата : Version 4 / Version 2
Размер файла : 2,93 Гбайт
Продолжительность : 1 ч. 27 м.
Режим общего битрейта : Переменный
Общий поток : 4799 Кбит/сек
Дата кодирования : UTC 2013-11-01 08:02:07
Программа кодирования : mkvmerge v6.5.0 ('Isn't she lovely') built on Oct 20 2013 12:50:05
Библиотека кодирования : libebml v1.3.0 + libmatroska v1.4.1

Видео
Идентификатор : 1
Формат : AVC
Формат/Информация : Advanced Video Codec
Профиль формата : High@L4.1
Параметр CABAC формата : Да
Параметр ReFrames формата : 9 кадров
Идентификатор кодека : V_MPEG4/ISO/AVC
Продолжительность : 1 ч. 27 м.
Ширина : 1278 пикселей
Высота : 720 пикселей
Соотношение сторон : 16:9
Режим частоты кадров : Постоянный
Частота кадров : 25,000 кадров/сек
Цветовое пространство : YUV
Субдискретизация насыщенности : 4:2:0
Битовая глубина : 8 бит
Тип развёртки : Прогрессивная
Библиотека кодирования : x264 core 138 r2358kMod 9e941d1
Настройки программы : cabac=1 / ref=9 / deblock=1:-3:-3 / analyse=0x3:0x113 / me=umh / subme=10 / psy=1 / fade_compensate=0.00 / psy_rd=1.00:0.00 / mixed_ref=1 / me_range=32 / chroma_me=1 / trellis=2 / 8x8dct=1 / cqm=0 / deadzone=21,11 / fast_pskip=0 / chroma_qp_offset=-2 / threads=6 / lookahead_threads=1 / sliced_threads=0 / nr=0 / decimate=1 / interlaced=0 / bluray_compat=0 / constrained_intra=0 / bframes=12 / b_pyramid=2 / b_adapt=2 / b_bias=0 / direct=3 / weightb=1 / open_gop=0 / weightp=2 / keyint=250 / keyint_min=25 / scenecut=40 / intra_refresh=0 / rc_lookahead=40 / rc=crf / mbtree=0 / crf=16.7500 / qcomp=0.70 / qpmin=0 / qpmax=69 / qpstep=4 / vbv_maxrate=50000 / vbv_bufsize=62500 / crf_max=0.0 / nal_hrd=none / ip_ratio=1.40 / pb_ratio=1.30 / aq=1:0.85
Язык : English
Default : Да
Forced : Нет
Основные цвета : BT.709
Характеристики трансфера : BT.709
Коэффициенты матрицы : BT.709

Аудио #1
Идентификатор : 2
Формат : AC-3
Формат/Информация : Audio Coding 3
Расширение режима : CM (complete main)
Параметр Endianness формата : Big
Идентификатор кодека : A_AC3
Продолжительность : 1 ч. 27 м.
Вид битрейта : Постоянный
Битрейт : 192 Кбит/сек
Каналы : 2 канала
Расположение каналов : Front: L R
Частота : 48,0 КГц
Битовая глубина : 16 бит
Метод сжатия : С потерями
Размер потока : 120 Мбайт (4%)
Заголовок : |Многоголосый закадровый, студия "Позитив", 100ТВ
Язык : Russian
Default : Да
Forced : Нет

Аудио #2
Идентификатор : 3
Формат : FLAC
Формат/Информация : Free Lossless Audio Codec
Идентификатор кодека : A_FLAC
Продолжительность : 1 ч. 27 м.
Вид битрейта : Переменный
Каналы : 2 канала
Частота : 48,0 КГц
Битовая глубина : 16 бит
Библиотека кодирования : libFLAC 1.2.1 (UTC 2007-09-17)
Язык : English
Default : Нет
Forced : Нет

Текст
Идентификатор : 4
Формат : UTF-8
Идентификатор кодека : S_TEXT/UTF8
Идентификатор кодека/Информация : UTF-8 Plain Text
Язык : English
Default : Нет
Forced : Нет

Меню
00:00:00.000 : en:00:00:00.000
00:08:49.229 : en:00:08:49.229
00:18:40.286 : en:00:18:40.286
00:27:35.888 : en:00:27:35.888
00:36:56.381 : en:00:36:56.381
00:47:37.455 : en:00:47:37.455
00:57:17.768 : en:00:57:17.768
01:05:51.815 : en:01:05:51.815
01:14:34.737 : en:01:14:34.737
01:20:10.706 : en:01:20:10.706
01:26:43.999 : en:01:26:43.999

Общее
Уникальный идентификатор : 183270237425978186529806707558065884456 (0x89E0905655B7744D9B808F081C07CD28)
Полное имя : George_Gently_HDCLUBGeorge.Gently.S04.720p.BluRay.Rus.Eng.HDCLUB-SbRInspector.George.Gently.S04.E01.720p.BluRay.Rus.Eng.HDCLUB-SbR.mkv
Формат : Matroska
Версия формата : Version 4 / Version 2
Размер файла : 3,83 Гбайт
Продолжительность : 1 ч. 29 м.
Режим общего битрейта : Переменный
Общий поток : 6149 Кбит/сек
Дата кодирования : UTC 2013-11-08 06:44:46
Программа кодирования : mkvmerge v6.5.0 ('Isn't she lovely') built on Oct 20 2013 12:50:05
Библиотека кодирования : libebml v1.3.0 + libmatroska v1.4.1

Видео
Идентификатор : 1
Формат : AVC
Формат/Информация : Advanced Video Codec
Профиль формата : High@L4.1
Параметр CABAC формата : Да
Параметр ReFrames формата : 9 кадров
Идентификатор кодека : V_MPEG4/ISO/AVC
Продолжительность : 1 ч. 29 м.
Ширина : 1278 пикселей
Высота : 720 пикселей
Соотношение сторон : 16:9
Режим частоты кадров : Постоянный
Частота кадров : 25,000 кадров/сек
Цветовое пространство : YUV
Субдискретизация насыщенности : 4:2:0
Битовая глубина : 8 бит
Тип развёртки : Прогрессивная
Библиотека кодирования : x264 core 138 r2358kMod 9e941d1
Настройки программы : cabac=1 / ref=9 / deblock=1:-3:-3 / analyse=0x3:0x113 / me=umh / subme=10 / psy=1 / fade_compensate=0.00 / psy_rd=1.00:0.00 / mixed_ref=1 / me_range=32 / chroma_me=1 / trellis=2 / 8x8dct=1 / cqm=0 / deadzone=21,11 / fast_pskip=0 / chroma_qp_offset=-2 / threads=6 / lookahead_threads=1 / sliced_threads=0 / nr=0 / decimate=1 / interlaced=0 / bluray_compat=0 / constrained_intra=0 / bframes=12 / b_pyramid=2 / b_adapt=2 / b_bias=0 / direct=3 / weightb=1 / open_gop=0 / weightp=2 / keyint=250 / keyint_min=25 / scenecut=40 / intra_refresh=0 / rc_lookahead=40 / rc=crf / mbtree=0 / crf=16.5000 / qcomp=0.70 / qpmin=0 / qpmax=69 / qpstep=4 / vbv_maxrate=50000 / vbv_bufsize=62500 / crf_max=0.0 / nal_hrd=none / ip_ratio=1.40 / pb_ratio=1.30 / aq=1:0.85
Язык : English
Default : Да
Forced : Нет
Основные цвета : BT.709
Характеристики трансфера : BT.709
Коэффициенты матрицы : BT.709

Аудио #1
Идентификатор : 2
Формат : AC-3
Формат/Информация : Audio Coding 3
Расширение режима : CM (complete main)
Параметр Endianness формата : Big
Идентификатор кодека : A_AC3
Продолжительность : 1 ч. 29 м.
Вид битрейта : Постоянный
Битрейт : 192 Кбит/сек
Каналы : 2 канала
Расположение каналов : Front: L R
Частота : 48,0 КГц
Битовая глубина : 16 бит
Метод сжатия : С потерями
Размер потока : 122 Мбайт (3%)
Заголовок : Многоголосый закадровый, студия "Позитив", 100ТВ
Язык : Russian
Default : Да
Forced : Нет

Аудио #2
Идентификатор : 3
Формат : FLAC
Формат/Информация : Free Lossless Audio Codec
Идентификатор кодека : A_FLAC
Продолжительность : 1 ч. 29 м.
Вид битрейта : Переменный
Каналы : 2 канала
Частота : 48,0 КГц
Битовая глубина : 16 бит
Библиотека кодирования : libFLAC 1.2.1 (UTC 2007-09-17)
Язык : English
Default : Нет
Forced : Нет

Текст
Идентификатор : 4
Формат : UTF-8
Идентификатор кодека : S_TEXT/UTF8
Идентификатор кодека/Информация : UTF-8 Plain Text
Default : Да
Forced : Нет

Меню
00:00:00.000 : en:00:00:00.000
00:08:02.248 : en:00:08:02.248
00:18:58.437 : en:00:18:58.437
00:25:51.283 : en:00:25:51.283
00:30:44.409 : en:00:30:44.409
00:39:56.995 : en:00:39:56.995
00:48:23.200 : en:00:48:23.200
01:01:03.827 : en:01:01:03.827
01:10:21.617 : en:01:10:21.617
01:15:52.982 : en:01:15:52.982

Общее
Уникальный идентификатор : 207926971252314053396721108185987220918 (0x9C6D472C3100EA20945266F9B63505B6)
Полное имя : George_Gently_HDCLUBGeorge.Gently.S04.720p.BluRay.Rus.Eng.HDCLUB-SbRInspector.George.Gently.S04.E02.720p.BluRay.Rus.Eng.HDCLUB-SbR.mkv
Формат : Matroska
Версия формата : Version 4 / Version 2
Размер файла : 3,81 Гбайт
Продолжительность : 1 ч. 28 м.
Режим общего битрейта : Переменный
Общий поток : 6170 Кбит/сек
Дата кодирования : UTC 2013-11-08 08:33:40
Программа кодирования : mkvmerge v6.5.0 ('Isn't she lovely') built on Oct 20 2013 12:50:05
Библиотека кодирования : libebml v1.3.0 + libmatroska v1.4.1

Видео
Идентификатор : 1
Формат : AVC
Формат/Информация : Advanced Video Codec
Профиль формата : High@L4.1
Параметр CABAC формата : Да
Параметр ReFrames формата : 9 кадров
Идентификатор кодека : V_MPEG4/ISO/AVC
Продолжительность : 1 ч. 28 м.
Ширина : 1278 пикселей
Высота : 720 пикселей
Соотношение сторон : 16:9
Режим частоты кадров : Постоянный
Частота кадров : 25,000 кадров/сек
Цветовое пространство : YUV
Субдискретизация насыщенности : 4:2:0
Битовая глубина : 8 бит
Тип развёртки : Прогрессивная
Библиотека кодирования : x264 core 138 r2358kMod 9e941d1
Настройки программы : cabac=1 / ref=9 / deblock=1:-3:-3 / analyse=0x3:0x113 / me=umh / subme=10 / psy=1 / fade_compensate=0.00 / psy_rd=1.00:0.00 / mixed_ref=1 / me_range=32 / chroma_me=1 / trellis=2 / 8x8dct=1 / cqm=0 / deadzone=21,11 / fast_pskip=0 / chroma_qp_offset=-2 / threads=6 / lookahead_threads=1 / sliced_threads=0 / nr=0 / decimate=1 / interlaced=0 / bluray_compat=0 / constrained_intra=0 / bframes=12 / b_pyramid=2 / b_adapt=2 / b_bias=0 / direct=3 / weightb=1 / open_gop=0 / weightp=2 / keyint=250 / keyint_min=25 / scenecut=40 / intra_refresh=0 / rc_lookahead=40 / rc=crf / mbtree=0 / crf=16.5000 / qcomp=0.70 / qpmin=0 / qpmax=69 / qpstep=4 / vbv_maxrate=50000 / vbv_bufsize=62500 / crf_max=0.0 / nal_hrd=none / ip_ratio=1.40 / pb_ratio=1.30 / aq=1:0.85
Язык : English
Default : Да
Forced : Нет
Основные цвета : BT.709
Характеристики трансфера : BT.709
Коэффициенты матрицы : BT.709

Аудио #1
Идентификатор : 2
Формат : AC-3
Формат/Информация : Audio Coding 3
Расширение режима : CM (complete main)
Параметр Endianness формата : Big
Идентификатор кодека : A_AC3
Продолжительность : 1 ч. 28 м.
Вид битрейта : Постоянный
Битрейт : 192 Кбит/сек
Каналы : 2 канала
Расположение каналов : Front: L R
Частота : 48,0 КГц
Битовая глубина : 16 бит
Метод сжатия : С потерями
Размер потока : 122 Мбайт (3%)
Заголовок : Многоголосый закадровый, студия "Позитив", 100ТВ
Язык : Russian
Default : Да
Forced : Нет

Аудио #2
Идентификатор : 3
Формат : FLAC
Формат/Информация : Free Lossless Audio Codec
Идентификатор кодека : A_FLAC
Продолжительность : 1 ч. 28 м.
Вид битрейта : Переменный
Каналы : 2 канала
Частота : 48,0 КГц
Битовая глубина : 16 бит
Библиотека кодирования : libFLAC 1.2.1 (UTC 2007-09-17)
Язык : English
Default : Нет
Forced : Нет

Текст
Идентификатор : 4
Формат : UTF-8
Идентификатор кодека : S_TEXT/UTF8
Идентификатор кодека/Информация : UTF-8 Plain Text
Язык : English
Default : Нет
Forced : Нет

Меню
00:00:00.000 : en:00:00:00.000
00:08:28.708 : en:00:08:28.708
00:15:09.976 : en:00:15:09.976
00:23:10.689 : en:00:23:10.689
00:32:00.519 : en:00:32:00.519
00:41:59.484 : en:00:41:59.484
00:48:40.217 : en:00:48:40.217
00:58:37.748 : en:00:58:37.748
01:06:26.149 : en:01:06:26.149
01:13:36.912 : en:01:13:36.912

Общее
Уникальный идентификатор : 242487894290312355731409213303652069374 (0xB66D783CB84A657DACE5E9841BF7AFFE)
Полное имя : George_Gently_HDCLUBGeorge.Gently.S05.720p.BluRay.Rus.Eng.HDCLUB-SbRInspector.George.Gently.S01.720p.BluRay.Rus.Eng.HDCLUB-SbR.mkv
Формат : Matroska
Версия формата : Version 4 / Version 2
Размер файла : 3,78 Гбайт
Продолжительность : 1 ч. 32 м.
Режим общего битрейта : Переменный
Общий поток : 5817 Кбит/сек
Дата кодирования : UTC 2013-11-13 14:27:34
Программа кодирования : mkvmerge v6.5.0 ('Isn't she lovely') built on Oct 20 2013 12:50:05
Библиотека кодирования : libebml v1.3.0 + libmatroska v1.4.1

Видео
Идентификатор : 1
Формат : AVC
Формат/Информация : Advanced Video Codec
Профиль формата : High@L4.1
Параметр CABAC формата : Да
Параметр ReFrames формата : 9 кадров
Идентификатор кодека : V_MPEG4/ISO/AVC
Продолжительность : 1 ч. 32 м.
Ширина : 1278 пикселей
Высота : 720 пикселей
Соотношение сторон : 16:9
Режим частоты кадров : Постоянный
Частота кадров : 23,976 кадра/сек
Цветовое пространство : YUV
Субдискретизация насыщенности : 4:2:0
Битовая глубина : 8 бит
Тип развёртки : Прогрессивная
Библиотека кодирования : x264 core 138 r2358kMod 9e941d1
Настройки программы : cabac=1 / ref=9 / deblock=1:-3:-3 / analyse=0x3:0x113 / me=umh / subme=10 / psy=1 / fade_compensate=0.00 / psy_rd=0.90:0.00 / mixed_ref=1 / me_range=32 / chroma_me=1 / trellis=2 / 8x8dct=1 / cqm=0 / deadzone=21,11 / fast_pskip=0 / chroma_qp_offset=-2 / threads=6 / lookahead_threads=1 / sliced_threads=0 / nr=0 / decimate=1 / interlaced=0 / bluray_compat=0 / constrained_intra=0 / bframes=12 / b_pyramid=2 / b_adapt=2 / b_bias=0 / direct=3 / weightb=1 / open_gop=0 / weightp=2 / keyint=250 / keyint_min=23 / scenecut=40 / intra_refresh=0 / rc_lookahead=40 / rc=crf / mbtree=0 / crf=18.5000 / qcomp=0.70 / qpmin=0 / qpmax=69 / qpstep=4 / vbv_maxrate=50000 / vbv_bufsize=62500 / crf_max=0.0 / nal_hrd=none / ip_ratio=1.40 / pb_ratio=1.30 / aq=1:0.85
Язык : English
Default : Да
Forced : Нет
Основные цвета : BT.709
Характеристики трансфера : BT.709
Коэффициенты матрицы : BT.709

Аудио #1
Идентификатор : 2
Формат : AC-3
Формат/Информация : Audio Coding 3
Расширение режима : CM (complete main)
Параметр Endianness формата : Big
Идентификатор кодека : A_AC3
Продолжительность : 1 ч. 32 м.
Вид битрейта : Постоянный
Битрейт : 192 Кбит/сек
Каналы : 2 канала
Расположение каналов : Front: L R
Частота : 48,0 КГц
Битовая глубина : 16 бит
Метод сжатия : С потерями
Размер потока : 128 Мбайт (3%)
Язык : Russian
Default : Да
Forced : Нет

Аудио #2
Идентификатор : 3
Формат : FLAC
Формат/Информация : Free Lossless Audio Codec
Идентификатор кодека : A_FLAC
Продолжительность : 1 ч. 32 м.
Вид битрейта : Переменный
Каналы : 2 канала
Частота : 48,0 КГц
Битовая глубина : 16 бит
Библиотека кодирования : libFLAC 1.2.1 (UTC 2007-09-17)
Язык : English
Default : Нет
Forced : Нет

Текст
Идентификатор : 4
Формат : UTF-8
Идентификатор кодека : S_TEXT/UTF8
Идентификатор кодека/Информация : UTF-8 Plain Text
Язык : English
Default : Нет
Forced : Нет

Меню
00:00:00.000 : en:00:00:00.000
00:08:39.727 : en:00:08:39.727
00:16:34.660 : en:00:16:34.660
00:26:22.455 : en:00:26:22.455
00:35:20.785 : en:00:35:20.785
00:44:28.624 : en:00:44:28.624
00:53:49.726 : en:00:53:49.726
01:02:59.525 : en:01:02:59.525
01:12:28.052 : en:01:12:28.052
01:19:34.811 : en:01:19:34.811
01:32:55.570 : en:01:32:55.570

Общее
Уникальный идентификатор : 244571053971280501325197313316290402832 (0xB7FEABF06D1F65968C4B7CB3F0059A10)
Полное имя : George_Gently_HDCLUBGeorge.Gently.S05.720p.BluRay.Rus.Eng.HDCLUB-SbRInspector.George.Gently.S02.720p.BluRay.Rus.Eng.HDCLUB-SbR .mkv
Формат : Matroska
Версия формата : Version 4 / Version 2
Размер файла : 3,06 Гбайт
Продолжительность : 1 ч. 32 м.
Режим общего битрейта : Переменный
Общий поток : 4725 Кбит/сек
Дата кодирования : UTC 2013-11-16 17:39:09
Программа кодирования : mkvmerge v6.5.0 ('Isn't she lovely') built on Oct 20 2013 12:50:05
Библиотека кодирования : libebml v1.3.0 + libmatroska v1.4.1

Видео
Идентификатор : 1
Формат : AVC
Формат/Информация : Advanced Video Codec
Профиль формата : High@L4.1
Параметр CABAC формата : Да
Параметр ReFrames формата : 9 кадров
Идентификатор кодека : V_MPEG4/ISO/AVC
Продолжительность : 1 ч. 32 м.
Ширина : 1278 пикселей
Высота : 720 пикселей
Соотношение сторон : 16:9
Режим частоты кадров : Постоянный
Частота кадров : 23,976 кадра/сек
Цветовое пространство : YUV
Субдискретизация насыщенности : 4:2:0
Битовая глубина : 8 бит
Тип развёртки : Прогрессивная
Библиотека кодирования : x264 core 138 r2358kMod 9e941d1
Настройки программы : cabac=1 / ref=9 / deblock=1:-3:-3 / analyse=0x3:0x113 / me=umh / subme=10 / psy=1 / fade_compensate=0.00 / psy_rd=0.90:0.00 / mixed_ref=1 / me_range=32 / chroma_me=1 / trellis=2 / 8x8dct=1 / cqm=0 / deadzone=21,11 / fast_pskip=0 / chroma_qp_offset=-2 / threads=6 / lookahead_threads=1 / sliced_threads=0 / nr=0 / decimate=1 / interlaced=0 / bluray_compat=0 / constrained_intra=0 / bframes=12 / b_pyramid=2 / b_adapt=2 / b_bias=0 / direct=3 / weightb=1 / open_gop=0 / weightp=2 / keyint=250 / keyint_min=23 / scenecut=40 / intra_refresh=0 / rc_lookahead=40 / rc=crf / mbtree=0 / crf=18.0000 / qcomp=0.70 / qpmin=0 / qpmax=69 / qpstep=4 / vbv_maxrate=50000 / vbv_bufsize=62500 / crf_max=0.0 / nal_hrd=none / ip_ratio=1.40 / pb_ratio=1.30 / aq=1:0.85
Язык : English
Default : Да
Forced : Нет
Основные цвета : BT.709
Характеристики трансфера : BT.709
Коэффициенты матрицы : BT.709

Аудио #1
Идентификатор : 2
Формат : AC-3
Формат/Информация : Audio Coding 3
Расширение режима : CM (complete main)
Параметр Endianness формата : Big
Идентификатор кодека : A_AC3
Продолжительность : 1 ч. 32 м.
Вид битрейта : Постоянный
Битрейт : 192 Кбит/сек
Каналы : 2 канала
Расположение каналов : Front: L R
Частота : 48,0 КГц
Битовая глубина : 16 бит
Метод сжатия : С потерями
Размер потока : 127 Мбайт (4%)
Заголовок : Многоголосый закадровый, студия "Позитив", 100ТВ
Язык : Russian
Default : Да
Forced : Нет

Аудио #2
Идентификатор : 3
Формат : FLAC
Формат/Информация : Free Lossless Audio Codec
Идентификатор кодека : A_FLAC
Продолжительность : 1 ч. 32 м.
Вид битрейта : Переменный
Каналы : 2 канала
Частота : 48,0 КГц
Битовая глубина : 16 бит
Библиотека кодирования : libFLAC 1.2.1 (UTC 2007-09-17)
Язык : English
Default : Нет
Forced : Нет

Текст
Идентификатор : 4
Формат : UTF-8
Идентификатор кодека : S_TEXT/UTF8
Идентификатор кодека/Информация : UTF-8 Plain Text
Язык : English
Default : Да
Forced : Нет

Меню
00:00:00.000 : en:00:00:00.000
00:10:17.366 : en:00:10:17.366
00:18:34.279 : en:00:18:34.279
00:28:29.249 : en:00:28:29.249
00:38:05.992 : en:00:38:05.992
00:44:27.623 : en:00:44:27.623
00:54:02.739 : en:00:54:02.739
01:00:26.331 : en:01:00:26.331
01:11:34.999 : en:01:11:34.999
01:23:33.425 : en:01:23:33.425
01:30:17.412 : en:01:30:17.412

Общее
Уникальный идентификатор : 195389305603399794799077375280117863564 (0x92FE9C87D222F704AE1A8020DA2E548C)
Полное имя : George_Gently_HDCLUBGeorge.Gently.S05.720p.BluRay.Rus.Eng.HDCLUB-SbRInspector.George.Gently.S03.720p.BluRay.Rus.Eng.HDCLUB-SbR.mkv
Формат : Matroska
Версия формата : Version 4 / Version 2
Размер файла : 2,81 Гбайт
Продолжительность : 1 ч. 30 м.
Режим общего битрейта : Переменный
Общий поток : 4451 Кбит/сек
Дата кодирования : UTC 2013-11-18 19:42:32
Программа кодирования : mkvmerge v6.5.0 ('Isn't she lovely') built on Oct 20 2013 12:50:05
Библиотека кодирования : libebml v1.3.0 + libmatroska v1.4.1

Видео
Идентификатор : 1
Формат : AVC
Формат/Информация : Advanced Video Codec
Профиль формата : High@L4.1
Параметр CABAC формата : Да
Параметр ReFrames формата : 9 кадров
Идентификатор кодека : V_MPEG4/ISO/AVC
Продолжительность : 1 ч. 30 м.
Ширина : 1278 пикселей
Высота : 720 пикселей
Соотношение сторон : 16:9
Режим частоты кадров : Постоянный
Частота кадров : 23,976 кадра/сек
Цветовое пространство : YUV
Субдискретизация насыщенности : 4:2:0
Битовая глубина : 8 бит
Тип развёртки : Прогрессивная
Библиотека кодирования : x264 core 138 r2358kMod 9e941d1
Настройки программы : cabac=1 / ref=9 / deblock=1:-3:-3 / analyse=0x3:0x113 / me=umh / subme=10 / psy=1 / fade_compensate=0.00 / psy_rd=0.90:0.00 / mixed_ref=1 / me_range=32 / chroma_me=1 / trellis=2 / 8x8dct=1 / cqm=0 / deadzone=21,11 / fast_pskip=0 / chroma_qp_offset=-2 / threads=6 / lookahead_threads=1 / sliced_threads=0 / nr=0 / decimate=1 / interlaced=0 / bluray_compat=0 / constrained_intra=0 / bframes=12 / b_pyramid=2 / b_adapt=2 / b_bias=0 / direct=3 / weightb=1 / open_gop=0 / weightp=2 / keyint=250 / keyint_min=23 / scenecut=40 / intra_refresh=0 / rc_lookahead=40 / rc=crf / mbtree=0 / crf=18.0000 / qcomp=0.70 / qpmin=0 / qpmax=69 / qpstep=4 / vbv_maxrate=50000 / vbv_bufsize=62500 / crf_max=0.0 / nal_hrd=none / ip_ratio=1.40 / pb_ratio=1.30 / aq=1:0.85
Язык : English
Default : Да
Forced : Нет
Основные цвета : BT.709
Характеристики трансфера : BT.709
Коэффициенты матрицы : BT.709

Аудио #1
Идентификатор : 2
Формат : AC-3
Формат/Информация : Audio Coding 3
Расширение режима : CM (complete main)
Параметр Endianness формата : Big
Идентификатор кодека : A_AC3
Продолжительность : 1 ч. 30 м.
Вид битрейта : Постоянный
Битрейт : 192 Кбит/сек
Каналы : 2 канала
Расположение каналов : Front: L R
Частота : 48,0 КГц
Битовая глубина : 16 бит
Метод сжатия : С потерями
Размер потока : 124 Мбайт (4%)
Язык : Russian
Default : Да
Forced : Нет

Аудио #2
Идентификатор : 3
Формат : FLAC
Формат/Информация : Free Lossless Audio Codec
Идентификатор кодека : A_FLAC
Продолжительность : 1 ч. 30 м.
Вид битрейта : Переменный
Каналы : 2 канала
Частота : 48,0 КГц
Битовая глубина : 16 бит
Библиотека кодирования : libFLAC 1.2.1 (UTC 2007-09-17)
Язык : English
Default : Нет
Forced : Нет

Текст
Идентификатор : 4
Формат : UTF-8
Идентификатор кодека : S_TEXT/UTF8
Идентификатор кодека/Информация : UTF-8 Plain Text
Язык : English
Default : Нет
Forced : Нет

Меню
00:00:00.000 : en:00:00:00.000
00:09:54.051 : en:00:09:54.051
00:18:05.167 : en:00:18:05.167
00:27:08.668 : en:00:27:08.668
00:35:22.453 : en:00:35:22.453
00:46:09.975 : en:00:46:09.975
00:53:20.989 : en:00:53:20.989
01:02:43.426 : en:01:02:43.426
01:10:14.585 : en:01:10:14.585
01:19:18.044 : en:01:19:18.044
01:32:44.559 : en:01:32:44.559

Общее
Уникальный идентификатор : 193991661429541552077964853744531684494 (0x91F16F5A400BBBBF95B41CEB06183C8E)
Полное имя : George_Gently_HDCLUBGeorge.Gently.S05.720p.BluRay.Rus.Eng.HDCLUB-SbRInspector.George.Gently.S04.720p.BluRay.Rus.Eng.HDCLUB-SbR.mkv
Формат : Matroska
Версия формата : Version 4 / Version 2
Размер файла : 2,54 Гбайт
Продолжительность : 1 ч. 32 м.
Режим общего битрейта : Переменный
Общий поток : 3926 Кбит/сек
Дата кодирования : UTC 2013-11-19 06:27:43
Программа кодирования : mkvmerge v6.5.0 ('Isn't she lovely') built on Oct 20 2013 12:50:05
Библиотека кодирования : libebml v1.3.0 + libmatroska v1.4.1

Видео
Идентификатор : 1
Формат : AVC
Формат/Информация : Advanced Video Codec
Профиль формата : High@L4.1
Параметр CABAC формата : Да
Параметр ReFrames формата : 9 кадров
Идентификатор кодека : V_MPEG4/ISO/AVC
Продолжительность : 1 ч. 32 м.
Ширина : 1278 пикселей
Высота : 720 пикселей
Соотношение сторон : 16:9
Режим частоты кадров : Постоянный
Частота кадров : 23,976 кадра/сек
Цветовое пространство : YUV
Субдискретизация насыщенности : 4:2:0
Битовая глубина : 8 бит
Тип развёртки : Прогрессивная
Библиотека кодирования : x264 core 138 r2358kMod 9e941d1
Настройки программы : cabac=1 / ref=9 / deblock=1:-3:-3 / analyse=0x3:0x113 / me=umh / subme=10 / psy=1 / fade_compensate=0.00 / psy_rd=0.90:0.00 / mixed_ref=1 / me_range=32 / chroma_me=1 / trellis=2 / 8x8dct=1 / cqm=0 / deadzone=21,11 / fast_pskip=0 / chroma_qp_offset=-2 / threads=6 / lookahead_threads=1 / sliced_threads=0 / nr=0 / decimate=1 / interlaced=0 / bluray_compat=0 / constrained_intra=0 / bframes=12 / b_pyramid=2 / b_adapt=2 / b_bias=0 / direct=3 / weightb=1 / open_gop=0 / weightp=2 / keyint=250 / keyint_min=23 / scenecut=40 / intra_refresh=0 / rc_lookahead=40 / rc=crf / mbtree=0 / crf=18.0000 / qcomp=0.70 / qpmin=0 / qpmax=69 / qpstep=4 / vbv_maxrate=50000 / vbv_bufsize=62500 / crf_max=0.0 / nal_hrd=none / ip_ratio=1.40 / pb_ratio=1.30 / aq=1:0.85
Язык : English
Default : Да
Forced : Нет
Основные цвета : BT.709
Характеристики трансфера : BT.709
Коэффициенты матрицы : BT.709

Аудио #1
Идентификатор : 2
Формат : AC-3
Формат/Информация : Audio Coding 3
Расширение режима : CM (complete main)
Параметр Endianness формата : Big
Идентификатор кодека : A_AC3
Продолжительность : 1 ч. 32 м.
Вид битрейта : Постоянный
Битрейт : 192 Кбит/сек
Каналы : 2 канала
Расположение каналов : Front: L R
Частота : 48,0 КГц
Битовая глубина : 16 бит
Метод сжатия : С потерями
Размер потока : 127 Мбайт (5%)
Заголовок : Многоголосый закадровый, студия "Позитив", 100ТВ
Язык : Russian
Default : Да
Forced : Нет

Аудио #2
Идентификатор : 3
Формат : FLAC
Формат/Информация : Free Lossless Audio Codec
Идентификатор кодека : A_FLAC
Продолжительность : 1 ч. 32 м.
Вид битрейта : Переменный
Каналы : 2 канала
Частота : 48,0 КГц
Битовая глубина : 16 бит
Библиотека кодирования : libFLAC 1.2.1 (UTC 2007-09-17)
Язык : English
Default : Нет
Forced : Нет

Текст
Идентификатор : 4
Формат : UTF-8
Идентификатор кодека : S_TEXT/UTF8
Идентификатор кодека/Информация : UTF-8 Plain Text
Язык : English
Default : Нет
Forced : Нет

Меню
00:00:00.000 : en:00:00:00.000
00:10:17.366 : en:00:10:17.366
00:18:34.279 : en:00:18:34.279
00:28:29.249 : en:00:28:29.249
00:38:05.992 : en:00:38:05.992
00:44:27.623 : en:00:44:27.623
00:54:02.739 : en:00:54:02.739
01:00:26.331 : en:01:00:26.331
01:11:34.999 : en:01:11:34.999
01:23:33.425 : en:01:23:33.425
01:30:17.412 : en:01:30:17.412
[/spoiler]

[spoiler="Скриншоты"]

[url=http://s019.radikal.ru/i607/1311/dd/1fdf5b898956.png][img]http://s019.radikal.ru/i607/1311/dd/1fdf5b898956t.jpg[/img][/url] [url=http://s020.radikal.ru/i709/1311/bf/3c0ad6a49eec.png][img]http://s020.radikal.ru/i709/1311/bf/3c0ad6a49eect.jpg[/img][/url] [url=http://s019.radikal.ru/i613/1311/31/541dae9c529b.png][img]http://s019.radikal.ru/i613/1311/31/541dae9c529bt.jpg[/img][/url] [url=http://s020.radikal.ru/i713/1311/15/c3c3f7832c9b.png][img]http://s020.radikal.ru/i713/1311/15/c3c3f7832c9bt.jpg[/img][/url]

[color=blue][b]Сезон 1.[/b][/color]
[url=http://s14.radikal.ru/i187/1311/6e/c5166c8b438b.png][img]http://s14.radikal.ru/i187/1311/6e/c5166c8b438bt.jpg[/img][/url] [url=http://s43.radikal.ru/i101/1311/c9/25301b48bf79.png][img]http://s43.radikal.ru/i101/1311/c9/25301b48bf79t.jpg[/img][/url] [url=http://s019.radikal.ru/i643/1311/99/ff39f3f4108c.png][img]http://s019.radikal.ru/i643/1311/99/ff39f3f4108ct.jpg[/img][/url] [url=http://s57.radikal.ru/i155/1311/df/4a14a0fe5f2f.png][img]http://s57.radikal.ru/i155/1311/df/4a14a0fe5f2ft.jpg[/img][/url]

[color=blue][b]Сезон 2.[/b][/color]
[url=http://s020.radikal.ru/i720/1311/38/5f61da5ed5ae.png][img]http://s020.radikal.ru/i720/1311/38/5f61da5ed5aet.jpg[/img][/url] [url=http://s020.radikal.ru/i722/1311/28/4ba171ac8cb9.png][img]http://s020.radikal.ru/i722/1311/28/4ba171ac8cb9t.jpg[/img][/url] [url=http://s57.radikal.ru/i158/1311/3d/dd8ecf54a100.png][img]http://s57.radikal.ru/i158/1311/3d/dd8ecf54a100t.jpg[/img][/url] [url=http://s004.radikal.ru/i205/1311/eb/8b9f8d8b00c9.png][img]http://s004.radikal.ru/i205/1311/eb/8b9f8d8b00c9t.jpg[/img][/url]
[url=http://s14.radikal.ru/i187/1311/c0/108116cf1881.png][img]http://s14.radikal.ru/i187/1311/c0/108116cf1881t.jpg[/img][/url] [url=http://s020.radikal.ru/i712/1311/db/8ccc09514aa4.png][img]http://s020.radikal.ru/i712/1311/db/8ccc09514aa4t.jpg[/img][/url] [url=http://s019.radikal.ru/i605/1311/9d/934e3d928a00.png][img]http://s019.radikal.ru/i605/1311/9d/934e3d928a00t.jpg[/img][/url] [url=http://i047.radikal.ru/1311/a3/f7b3884f6eb1.png][img]http://i047.radikal.ru/1311/a3/f7b3884f6eb1t.jpg[/img][/url]

[color=blue][b]Сезон 3.[/b][/color]
[url=http://s020.radikal.ru/i719/1311/08/2514b3310044.png][img]http://s020.radikal.ru/i719/1311/08/2514b3310044t.jpg[/img][/url] [url=http://s020.radikal.ru/i706/1311/0a/1b1fcac239fb.png][img]http://s020.radikal.ru/i706/1311/0a/1b1fcac239fbt.jpg[/img][/url] [url=http://s019.radikal.ru/i637/1311/77/a782ae681925.png][img]http://s019.radikal.ru/i637/1311/77/a782ae681925t.jpg[/img][/url] [url=http://s020.radikal.ru/i715/1311/46/93ea43e65d5d.png][img]http://s020.radikal.ru/i715/1311/46/93ea43e65d5dt.jpg[/img][/url]

[color=blue][b]Сезон 4.[/b][/color]
[url=http://s019.radikal.ru/i606/1311/44/172a235a538d.png][img]http://s019.radikal.ru/i606/1311/44/172a235a538dt.jpg[/img][/url] [url=http://s018.radikal.ru/i503/1311/cb/cd71c6b3813e.png][img]http://s018.radikal.ru/i503/1311/cb/cd71c6b3813et.jpg[/img][/url] [url=http://s001.radikal.ru/i195/1311/4f/1486ec6a6894.png][img]http://s001.radikal.ru/i195/1311/4f/1486ec6a6894t.jpg[/img][/url] [url=http://s57.radikal.ru/i156/1311/47/9da89987f4ed.png][img]http://s57.radikal.ru/i156/1311/47/9da89987f4edt.jpg[/img][/url]

[color=blue][b]Сезон 5.[/b][/color]
[url=http://i069.radikal.ru/1311/db/c0284f10b6d1.png][img]http://i069.radikal.ru/1311/db/c0284f10b6d1t.jpg[/img][/url] [url=http://i069.radikal.ru/1311/8f/26043160516e.png][img]http://i069.radikal.ru/1311/8f/26043160516et.jpg[/img][/url] [url=http://s019.radikal.ru/i627/1311/cf/438ece03a2e1.png][img]http://s019.radikal.ru/i627/1311/cf/438ece03a2e1t.jpg[/img][/url] [url=http://s002.radikal.ru/i200/1311/84/60cf89beb2ab.png][img]http://s002.radikal.ru/i200/1311/84/60cf89beb2abt.jpg[/img][/url]
[url=http://s017.radikal.ru/i430/1311/f1/3fd7fe4c62ac.png][img]http://s017.radikal.ru/i430/1311/f1/3fd7fe4c62act.jpg[/img][/url] [url=http://s004.radikal.ru/i207/1311/a0/76df6a1f45c9.png][img]http://s004.radikal.ru/i207/1311/a0/76df6a1f45c9t.jpg[/img][/url] [url=http://s019.radikal.ru/i601/1311/63/f8e1a6a0f765.png][img]http://s019.radikal.ru/i601/1311/63/f8e1a6a0f765t.jpg[/img][/url] [url=http://s005.radikal.ru/i209/1311/9f/931b9ef0a439.png][img]http://s005.radikal.ru/i209/1311/9f/931b9ef0a439t.jpg[/img][/url]
[/spoiler]



   Похожие торренты   Торрент   Размер 
В этой теме нет новых непрочитанных сообщений. Инспектор Джордж Джентли / Inspector George Gently [s01-05] (2007-2012) BDRip от DeathN2

46 | 10

21.83 ГБ

В этой теме нет новых непрочитанных сообщений. Инспектор Джордж Джентли / Inspector George Gently [S08] (2017) HDTVRip 720p | SunshineStudio

3 | 1

2.55 ГБ

В этой теме нет новых непрочитанных сообщений. Инспектор Джордж Джентли / Inspector George Gently [S06x01-04] (2014) WEB-DLRip 720p | DexterTV

2 | 0

5.75 ГБ

В этой теме нет новых непрочитанных сообщений. Инспектор Джордж Джентли / Inspector George Gently [08х01 из 2] (2017) HDTVRip 720p | SunshineStudio

4 | 0

1.17 ГБ

В этой теме нет новых непрочитанных сообщений. Инспектор Джордж Джентли / Inspector George Gently [s06] (2014) HDTVRip от Koenig | P

10 | 1

5.34 ГБ

В этой теме нет новых непрочитанных сообщений. Дирк Джентли / Dirk Gently [S01] (2012) HDTVRip | Ozz

6 | 2

1.93 ГБ

В этой теме нет новых непрочитанных сообщений. Джордж из джунглей / George of the Jungle [01-26 из ?] (2007) DVDRip-AVC от New-Team | лицензия

16 | 14

6.32 ГБ




Вы не можете начинать темы
Вы не можете отвечать на сообщения
Вы не можете редактировать свои сообщения
Вы не можете удалять свои сообщения
Вы не можете добавлять вложения

Перейти:  
Для Мосгорсуда, Роскомнадзора и рекламодателей: mosgorsud-torrent[собачка]yandex.ru
 Вход
ppkBB3cker v.2 © 2008-2014 @ PPK
[ Time : 0.047s | 19 Queries | GZIP : Off ]

cron