img image001 image001 image001 image001 image001 image001 image001 image001 image001 image001 image001 image001 image001 image001 image001

Planets Sun Sun Sun
Статистика раздачи
Автор: PriZraK | Размер: 2.81 ГБ | Добавлен: 15 фев 2014
Раздают: 7    Качают: 4
Скачать торрент
Скачать торрент
Описание торрента

СообщениеДобавлено: 15 фев 2014 




Страна: Россия / "ЭсЭф Продакшн"
Жанр: мелодрама, детектив, биография
Год выпуска: 2013
Продолжительность: 4 серии ~ 45 мин.

Перевод: не требуется
Cубтитры: нет
Оригинальная аудиодорожка: русский

Режиссер: Елена Николаева

В ролях: Дмитрий Певцов, Александр Балуев, Ольга Будина, Ольга Дроздова, Екатерина Молоховская, Ева Авеева, Иван Рудаков, Витас Эйзенах, Александр Лучинин, Марианна Шульц, Анжелика Каширина, Константин Стрельников...

Описание: Великий физик всю свою жизнь был предан науке, в его жизни не было места романтическим отношениям, пока он не познакомился с Маргаритой Коненковой. Она стала единственной женщиной в его жизни, к которой он смог испытать очень сильные романтические чувства. Маргарита была одной из известных обольстительниц того времени. Под ее чарами находилось очень много знаменитых личностей той эпохи.
Эйнштейн не уставал прикладывать массу усилий, чтобы снова и снова встретиться с любимой, и с огромным нетерпением ждал каждую их новую встречу. А при встречах он с особой радостью рассказывал ей обо всех своих открытиях и достижениях в области науки. Но даже в самых смелых мыслях гениальному физику не могло прийти в голову, что Маргарита, на самом деле, — сотрудник НКВД. Поэтому она записывала все услышанное, а потом отправляла записи в Россию, включая информацию о том, как продвигается ядерный проект…



Качество: DVDRip (DVD9 R5)
Формат: AVI

Видео: 720x400 (16:9), 25.000 fps, XViD ~ 2000 kbps avg, 0.278 bit/pixel
Аудио: 48 kHz, АС3 2 ch, 192 kbps, русский

Раздача от:
Общее
Полное имя : Einshtein.teoriya.lubvi.2013.O.DVDRip_[New-Team]_by_avproh\01.avi
Формат : AVI
Формат/Информация : Audio Video Interleave
Размер файла : 722 Мбайт
Продолжительность : 45 м.
Общий поток : 2201 Кбит/сек
Программа кодирования : VirtualDubModRus 1.5.10.2 (build 2542/release)
Библиотека кодирования : VirtualDubMod build 2542/release

Видео
Идентификатор : 0
Формат : MPEG-4 Visual
Профиль формата : Advanced Simple@L5
Параметр BVOP формата : 1
Параметр QPel формата : Нет
Параметр GMC формата : Без точки перехода
Параметр матрицы формата : Выборочная
Идентификатор кодека : XVID
Идентификатор кодека/Подсказка : XviD
Продолжительность : 45 м.
Битрейт : 2000 Кбит/сек
Ширина : 720 пикселей
Высота : 400 пикселей
Соотношение сторон : 16:9
Частота кадров : 25,000 кадров/сек
Цветовое пространство : YUV
Субдискретизация насыщенности : 4:2:0
Битовая глубина : 8 бит
Тип развёртки : Прогрессивная
Метод сжатия : С потерями
Бит/(Пиксели*Кадры) : 0.278
Размер потока : 656 Мбайт (91%)
Библиотека кодирования : XviD 73

Аудио
Идентификатор : 1
Формат : AC-3
Формат/Информация : Audio Coding 3
Расширение режима : CM (complete main)
Параметр Endianness формата : Big
Идентификатор кодека : 2000
Продолжительность : 45 м.
Вид битрейта : Постоянный
Битрейт : 192 Кбит/сек
Каналы : 2 канала
Расположение каналов : Front: L R
Частота : 48,0 КГц
Битовая глубина : 16 бит
Метод сжатия : С потерями
Размер потока : 63,0 Мбайт (9%)
Выравнивание : Разделение по промежуткам
Продолжительность промежутка : 40 мс. (1,00 видеокадр)
Время предзагрузки промежутка : 500 мс.



http://alt.rutor.org/torrent/302217/

http://screenshotcomparison.com/comparison/49985 большой перекроп у конкурента, а картинку сами видите. Плюс у него в сериях присутствует реклама всевозможная, вот пример из первой серии:



   Похожие торренты   Торрент   Размер 
В этой теме нет новых непрочитанных сообщений. Эйнштейн. Теория любви [01-04 из 04] (2013) DVDRip-AVC от New Team | лицензия

0 | 2

2.81 ГБ

В этой теме нет новых непрочитанных сообщений. Эйнштейн. Теория любви [01-04 из 04] (2013) DVD9 R5 от New Team | лицензия

1 | 2

7.18 ГБ

В этой теме нет новых непрочитанных сообщений. Эйнштейн. Теория любви / Эйнштейн / Русская любовь Эйнштейна [01-04 из 04] (2013) DVB от Files-x

1 | 3

3.54 ГБ

В этой теме нет новых непрочитанных сообщений. Эйнштейн. Теория любви / Эйнштейн / Русская любовь Эйнштейна [01-04 из 04] (2013) SATRip от Files-x

32 | 4

2.31 ГБ

В этой теме нет новых непрочитанных сообщений. Теория заговора / Zulu (2013) DVD5 от New-Team | P | Лицензия

83 | 22

3.99 ГБ

В этой теме нет новых непрочитанных сообщений. Диана: История любви / Diana (2013) DVD9 R5 от New-Team | D | лицензия

2 | 2

6.94 ГБ

В этой теме нет новых непрочитанных сообщений. Джек Райан: Теория хаоса / Jack Ryan: Shadow Recruit (2014) DVD9 от New-Team | Лицензия

285 | 60

6.44 ГБ




Вы не можете начинать темы
Вы не можете отвечать на сообщения
Вы не можете редактировать свои сообщения
Вы не можете удалять свои сообщения
Вы не можете добавлять вложения

Перейти:  
Для Мосгорсуда, Роскомнадзора и рекламодателей: mosgorsud-torrent[собачка]yandex.ru
 Вход
ppkBB3cker v.2 © 2008-2014 @ PPK
[ Time : 0.032s | 16 Queries | GZIP : Off ]

Торрент трекер RUTOR.IN, Не можете зайти на rutor.org? Какой новый адрес рутор? Какое зеркало рутор? Не работает rutor.org и зеркала? Тогда наш торрент специально для вас. Rutor.in неофициальное зеркало rutor. В случае если у Вас заблокирован rutor или вдруг Вы не можете на него зайти, то Вы без труда сможете скачать бесплатно и без рекламы последние новинки кино, игр, сериалов и прочего у нас, на Rutor.in. Не нужно использовать прокси, чтобы зайти на рутор, достаточно воспользоваться нашим ресурсом. Все новые фильмы, игры, сериалы, книги и музыка за 2013 и 2014 годы через торрент бесплатно. Скачивайте фильмы в хорошем качестве, игры для пк, xbox, playstation без регистрации. У нас вы найдете новые Зарубежные сериалы и Русские сериалы 2013, 2014, 2015 годов. Оставайтесь с нами, качайте любимые фильмы, игры, сериалы, книги и музыку.
cron