img image001 image001 image001 image001 image001 image001 image001 image001 image001 image001 image001 image001 image001 image001 image001

Planets Sun Sun Sun
Статистика раздачи
Автор: PriZraK | Размер: 10.94 ГБ | Добавлен: 15 фев 2014
Раздают: 249    Качают: 54
Скачать торрент
Скачать торрент
Описание торрента

СообщениеДобавлено: 15 фев 2014 




Страна: Россия / Студия Арт-Базар
Жанр: детектив, приключения, криминал
Год выпуска: 2013
Продолжительность: 16 серий ~ 45 мин.

Перевод: не требуется
Cубтитры: нет
Оригинальная аудиодорожка: русский

Режиссер: Дмитрий Кузьмин, Георгий Гаврилов

В ролях: Алексей Серебряков, Юрий Беляев, Агния Дитковските, Ольга Сумская, Ада Роговцева, Татьяна Лютаева, Александр Катунин, Ирина Бразговка, Владимир Башкиров, Илья Шакунов...

Описание: Секретному агенту спецслужб Андрею Козыреву по прозвищу Американец, несправедливо осужденному за убийство, однажды выпадает шанс изменить свою жизнь. Он совершает дерзкий побег из колонии, чтобы разыскать своего врага, доказать свою невиновность и спасти мир от нового смертельного вируса, грозящего гибелью миллионам людей.



Качество: DVDRip (2 x DVD9 R5)
Формат: AVI

Видео: 688x368 (1.85:1), 25.000 fps, XViD ~ 2000 kbps avg, 0.316 bit/pixel
Аудио: 48 kHz, АС3 2 ch, 192 kbps, русский

Примечание: В файле 01.avi находятся 1-я и 2-я серии фильма.

Раздача от:
Общее
Полное имя : Agent.2013.O.DVDRip_[New-Team]_by_avproh�1.avi
Формат : AVI
Формат/Информация : Audio Video Interleave
Размер файла : 1,36 Гбайт
Продолжительность : 1 ч. 28 м.
Общий поток : 2201 Кбит/сек
Программа кодирования : VirtualDubModRus 1.5.10.2 (build 2542/release)
Библиотека кодирования : VirtualDubMod build 2542/release

Видео
Идентификатор : 0
Формат : MPEG-4 Visual
Профиль формата : Advanced Simple@L5
Параметр BVOP формата : 1
Параметр QPel формата : Нет
Параметр GMC формата : Без точки перехода
Параметр матрицы формата : Выборочная
Идентификатор кодека : XVID
Идентификатор кодека/Подсказка : XviD
Продолжительность : 1 ч. 28 м.
Битрейт : 2000 Кбит/сек
Ширина : 688 пикселей
Высота : 368 пикселей
Соотношение сторон : 1,85:1
Частота кадров : 25,000 кадров/сек
Цветовое пространство : YUV
Субдискретизация насыщенности : 4:2:0
Битовая глубина : 8 бит
Тип развёртки : Прогрессивная
Метод сжатия : С потерями
Бит/(Пиксели*Кадры) : 0.316
Размер потока : 1,23 Гбайт (91%)
Библиотека кодирования : XviD 73

Аудио
Идентификатор : 1
Формат : AC-3
Формат/Информация : Audio Coding 3
Расширение режима : CM (complete main)
Параметр Endianness формата : Big
Идентификатор кодека : 2000
Продолжительность : 1 ч. 28 м.
Вид битрейта : Постоянный
Битрейт : 192 Кбит/сек
Каналы : 2 канала
Расположение каналов : Front: L R
Частота : 48,0 КГц
Битовая глубина : 16 бит
Метод сжатия : С потерями
Размер потока : 121 Мбайт (9%)
Выравнивание : Разделение по промежуткам
Продолжительность промежутка : 40 мс. (1,00 видеокадр)
Время предзагрузки промежутка : 500 мс.






   Похожие торренты   Торрент   Размер 
В этой теме нет новых непрочитанных сообщений. Агент [01-16 из 16] (2013) DVDRip-AVC от New-Team | лицензия

11 | 7

10.94 ГБ

В этой теме нет новых непрочитанных сообщений. Агент [01-16 из 16] (2013) DVD9 R5 от New-Team | лицензия

7 | 7

14.83 ГБ

В этой теме нет новых непрочитанных сообщений. Хитмэн: Агент 47 / Hitman: Agent 47 (2015) BDRip-AVC от New-Team | Лицензия

218 | 19

1.46 ГБ

В этой теме нет новых непрочитанных сообщений. Хитмэн: Агент 47 / Hitman: Agent 47 (2015) BDRip-AVC от New-Team | Лицензия

956 | 46

2.17 ГБ

В этой теме нет новых непрочитанных сообщений. Агент Хамилтон: В интересах нации / Hamilton: I nationens intresse (2012) BDRip-AVC от New-Team | Лицензия

96 | 6

1.46 ГБ

В этой теме нет новых непрочитанных сообщений. Агент Хамилтон: В интересах нации / Hamilton: I nationens intresse (2012) BDRip-AVC от New-Team | Лицензия

12 | 4

2.18 ГБ

В этой теме нет новых непрочитанных сообщений. Дед 005 (2013) DVDRip-AVC от New-Team | Лицензия

75 | 7

743.11 МБ




Вы не можете начинать темы
Вы не можете отвечать на сообщения
Вы не можете редактировать свои сообщения
Вы не можете удалять свои сообщения
Вы не можете добавлять вложения

Перейти:  
Для Мосгорсуда, Роскомнадзора и рекламодателей: mosgorsud-torrent[собачка]yandex.ru
 Вход
ppkBB3cker v.2 © 2008-2014 @ PPK
[ Time : 0.036s | 16 Queries | GZIP : Off ]

cron