img image001 image001 image001 image001 image001 image001 image001 image001 image001 image001 image001 image001 image001 image001 image001

Planets Sun Sun Sun
Статистика раздачи
Автор: PriZraK | Размер: 10.94 ГБ | Добавлен: 15 фев 2014
Раздают: 23    Качают: 11
Скачать торрент
Скачать торрент
Описание торрента

СообщениеДобавлено: 15 фев 2014 




Страна: Россия / Студия Арт-Базар
Жанр: детектив, приключения, криминал
Год выпуска: 2013
Продолжительность: 16 серий ~ 45 мин.

Перевод: не требуется
Cубтитры: нет
Оригинальная аудиодорожка: русский

Режиссер: Дмитрий Кузьмин, Георгий Гаврилов

В ролях: Алексей Серебряков, Юрий Беляев, Агния Дитковските, Ольга Сумская, Ада Роговцева, Татьяна Лютаева, Александр Катунин, Ирина Бразговка, Владимир Башкиров, Илья Шакунов...

Описание: Секретному агенту спецслужб Андрею Козыреву по прозвищу Американец, несправедливо осужденному за убийство, однажды выпадает шанс изменить свою жизнь. Он совершает дерзкий побег из колонии, чтобы разыскать своего врага, доказать свою невиновность и спасти мир от нового смертельного вируса, грозящего гибелью миллионам людей.



Качество: DVDRip-AVC (2 x DVD9 R5)
Формат: MKV

Видео: 704x530@1008x530 (1.85:1), 25.000 fps, H264 ~ 2006 kbps avg, 0.215 bit/pixel
Аудио: 48 kHz, АС3 2 ch, 192 kbps, русский
Примечание: В файле 01.mkv находятся 1-я и 2-я серии фильма.

Раздача от:
Общее
Полное имя : Agent.2013.O.DVDRip-AVC_[New-Team]_by_avproh1.mkv
Формат : Matroska
Версия формата : Version 4 / Version 2
Размер файла : 1,36 Гбайт
Продолжительность : 1 ч. 28 м.
Общий поток : 2200 Кбит/сек
Дата кодирования : UTC 2013-11-24 16:07:06
Программа кодирования : mkvmerge v6.5.0 ('Isn't she lovely') built on Oct 20 2013 12:50:05
Библиотека кодирования : libebml v1.3.0 + libmatroska v1.4.1

Видео
Идентификатор : 1
Формат : AVC
Формат/Информация : Advanced Video Codec
Профиль формата : High@L4.1
Параметр CABAC формата : Да
Параметр ReFrames формата : 6 кадров
Идентификатор кодека : V_MPEG4/ISO/AVC
Продолжительность : 1 ч. 28 м.
Битрейт : 2006 Кбит/сек
Ширина : 704 пикселя
Высота : 530 пикселей
Соотношение сторон : 1,85:1
Соотношение сторон в оригинале : 1,85:1
Режим частоты кадров : Постоянный
Частота кадров : 25,000 кадров/сек
Цветовое пространство : YUV
Субдискретизация насыщенности : 4:2:0
Битовая глубина : 8 бит
Тип развёртки : Прогрессивная
Бит/(Пиксели*Кадры) : 0.215
Размер потока : 1,21 Гбайт (89%)
Библиотека кодирования : x264 core 138 r2356 a1d3d17
Настройки программы : cabac=1 / ref=6 / deblock=1:-2:-1 / analyse=0x3:0x113 / me=umh / subme=10 / psy=1 / psy_rd=1.00:0.05 / mixed_ref=1 / me_range=32 / chroma_me=1 / trellis=2 / 8x8dct=1 / cqm=0 / deadzone=21,11 / fast_pskip=0 / chroma_qp_offset=-3 / threads=9 / lookahead_threads=1 / sliced_threads=0 / nr=0 / decimate=0 / interlaced=0 / bluray_compat=0 / constrained_intra=0 / bframes=8 / b_pyramid=2 / b_adapt=2 / b_bias=0 / direct=3 / weightb=1 / open_gop=0 / weightp=2 / keyint=250 / keyint_min=25 / scenecut=40 / intra_refresh=0 / rc=2pass / mbtree=0 / bitrate=2006 / ratetol=1.0 / qcomp=0.60 / qpmin=0 / qpmax=69 / qpstep=4 / cplxblur=20.0 / qblur=0.5 / ip_ratio=1.40 / pb_ratio=1.30 / aq=1:1.00
Язык : Russian
Default : Да
Forced : Нет

Аудио
Идентификатор : 2
Формат : AC-3
Формат/Информация : Audio Coding 3
Расширение режима : CM (complete main)
Параметр Endianness формата : Big
Идентификатор кодека : A_AC3
Продолжительность : 1 ч. 28 м.
Вид битрейта : Постоянный
Битрейт : 192 Кбит/сек
Каналы : 2 канала
Расположение каналов : Front: L R
Частота : 48,0 КГц
Битовая глубина : 16 бит
Метод сжатия : С потерями
Размер потока : 121 Мбайт (9%)
Язык : Russian
Default : Да
Forced : Нет





   Похожие торренты   Торрент   Размер 
В этой теме нет новых непрочитанных сообщений. Агент [01-16 из 16] (2013) DVDRip от New-Team | лицензия

249 | 54

10.94 ГБ

В этой теме нет новых непрочитанных сообщений. Агент [01-16 из 16] (2013) DVD9 R5 от New-Team | лицензия

11 | 11

14.83 ГБ

В этой теме нет новых непрочитанных сообщений. Хитмэн: Агент 47 / Hitman: Agent 47 (2015) BDRip-AVC от New-Team | Лицензия

1390 | 64

2.17 ГБ

В этой теме нет новых непрочитанных сообщений. Хитмэн: Агент 47 / Hitman: Agent 47 (2015) BDRip-AVC от New-Team | Лицензия

230 | 33

1.46 ГБ

В этой теме нет новых непрочитанных сообщений. Агент Хамилтон: В интересах нации / Hamilton: I nationens intresse (2012) BDRip-AVC от New-Team | Лицензия

55 | 2

2.18 ГБ

В этой теме нет новых непрочитанных сообщений. Агент Хамилтон: В интересах нации / Hamilton: I nationens intresse (2012) BDRip-AVC от New-Team | Лицензия

195 | 11

1.46 ГБ

В этой теме нет новых непрочитанных сообщений. Дед 005 (2013) DVDRip-AVC от New-Team | Лицензия

224 | 9

1.46 ГБ




Вы не можете начинать темы
Вы не можете отвечать на сообщения
Вы не можете редактировать свои сообщения
Вы не можете удалять свои сообщения
Вы не можете добавлять вложения

Перейти:  
Для Мосгорсуда, Роскомнадзора и рекламодателей: mosgorsud-torrent[собачка]yandex.ru
 Вход
ppkBB3cker v.2 © 2008-2014 @ PPK
[ Time : 0.043s | 15 Queries | GZIP : Off ]

Торрент трекер RUTOR.IN, Не можете зайти на rutor.org? Какой новый адрес рутор? Какое зеркало рутор? Не работает rutor.org и зеркала? Тогда наш торрент специально для вас. Rutor.in неофициальное зеркало rutor. В случае если у Вас заблокирован rutor или вдруг Вы не можете на него зайти, то Вы без труда сможете скачать бесплатно и без рекламы последние новинки кино, игр, сериалов и прочего у нас, на Rutor.in. Не нужно использовать прокси, чтобы зайти на рутор, достаточно воспользоваться нашим ресурсом. Все новые фильмы, игры, сериалы, книги и музыка за 2013 и 2014 годы через торрент бесплатно. Скачивайте фильмы в хорошем качестве, игры для пк, xbox, playstation без регистрации. У нас вы найдете новые Зарубежные сериалы и Русские сериалы 2013, 2014, 2015 годов. Оставайтесь с нами, качайте любимые фильмы, игры, сериалы, книги и музыку.