img image001 image001 image001 image001 image001 image001 image001 image001 image001 image001 image001 image001 image001 image001 image001

Planets Sun Sun Sun
Статистика раздачи
Автор: PriZraK | Размер: 7.22 ГБ | Добавлен: 15 фев 2014
Раздают: 6    Качают: 4
Скачать торрент
Скачать торрент
Описание торрента

СообщениеДобавлено: 15 фев 2014 




Информация о фильме
Оригинальное название: Шулер / Одесса-мама
Год выхода: 2013
Жанр: Криминал, драма
Режиссер: Эдуард Парри
В ролях: Антон Феоктистов, Ольга Лерман, Сергей Сосновский, Алексей Ведерников (II), Алексей Горбунов, Сергей Алимпиев, Кирилл Козаков, Екатерина Волкова, Юлия Галкина, Владимир Карпов (III), Александр Робак, Павел Трубинер, Александр Савенков, Алексей Смолка, Вадим Цаллати...

О фильме:
Дело происходит в Одессе в 1980 год. У Костика Волошина большие планы, он хочет удрать за кордон. У него двойная жизнь – должность научного сотрудника НИИ лишь прикрытие для шулерской деятельности, в которой Костик абсолютный профи. Спасаясь от карточника Гоги, которому он задолжал большую сумму денег, Костик едет в Одессу, откуда сам родом. Ему нужно заработать денег чтобы уехать из страны. Все аферы наш герой проворачивает под прикрытием Балабана, который крышует всю Одессу. Однако лучший друг и покровитель Балабан становится врагом номер один, когда Костик узнает, что именно он причастен к гибели его отца. А теперь Балабан еще и намерен выжить Костика из города, ведь у них на пути вставала одна девушка по имени Майя. Костик решает заставить Балабана заплатить за смерть своего отца.



Страна: Россия, Украина
Студия: "Star Media"
Продолжительность: 10 х ~00:51:00
Перевод: Не требуется

Файл
Формат: AVI
Качество: WEB-DLRip
Видео: XviD, 720x408, ~1800 kbps, 25.000 fps
Звук: AC3, 44.1 KHz, 2 ch, 192 Kbps
Субтитры: Нет

Семпл


: E:KinoShuler.2013.XviD.WEB-DLRip.GeneralfilmShuler.e09.2013.XviD.WEB-DLRip.Generalfilm.avi
Format : AVI
Format/Info : Audio Video Interleave
File size : 742 MiB
Duration : 51mn 46s
Overall bit rate : 2 003 Kbps
Writing application : VirtualDubMod 1.5.10.3 | www.virtualdub-fr.org || (build 2550/release)
Writing library : VirtualDubMod build 2550/release

Video
ID : 0
Format : MPEG-4 Visual
Format profile : Advanced Simple@L5
Format settings, BVOP : Yes
Format settings, QPel : No
Format settings, GMC : No warppoints
Format settings, Matrix : Default (H.263)
Codec ID : XVID
Codec ID/Hint : XviD
Duration : 51mn 46s
Bit rate : 1 802 Kbps
Width : 720 pixels
Height : 408 pixels
Display aspect ratio : 16:9
Frame rate : 25.000 fps
Color space : YUV
Chroma subsampling : 4:2:0
Bit depth : 8 bits
Scan type : Progressive
Compression mode : Lossy
Bits/(Pixel*Frame) : 0.245
Stream size : 667 MiB (90%)
Writing library : XviD 1.2.1 (UTC 2008-12-04)

Audio
ID : 1
Format : AC-3
Format/Info : Audio Coding 3
Mode extension : CM (complete main)
Format settings, Endianness : Big
Codec ID : 2000
Duration : 51mn 46s
Bit rate mode : Constant
Bit rate : 192 Kbps
Channel count : 2 channels
Channel positions : Front: L R
Sampling rate : 44.1 KHz
Bit depth : 16 bits
Compression mode : Lossy
Stream size : 71.1 MiB (10%)
Alignment : Split accross interleaves
Interleave, duration : 40 ms (1.00 video frame)
Interleave, preload duration : 500 ms

Релиз от:



   Похожие торренты   Торрент   Размер 
В этой теме нет новых непрочитанных сообщений. Шулер / Одесса-мама [01-10 из 10] (2013) WEB-DLRip от Generalfilm | КПК

216 | 30

2.27 ГБ

В этой теме нет новых непрочитанных сообщений. Шулер / Одесса-мама [01-10 из 10] (2013) WEB-DLRip

162 | 11

3.43 ГБ

В этой теме нет новых непрочитанных сообщений. Шулер / Одесса-мама [01-10 из 10] (2013) WEB-DLRip-AVC 1080p

23 | 27

19.85 ГБ

В этой теме нет новых непрочитанных сообщений. Шулер / Одесса-мама [01-10 из 10] (2013) WEB-DL 720p

129 | 28

7.17 ГБ

В этой теме нет новых непрочитанных сообщений. Шулер / Одесса-мама [01-10 из 10] (2013) SATRip от Files-x

208 | 23

6.59 ГБ

В этой теме нет новых непрочитанных сообщений. Шулер / Одесса-мама [01-10 из 10] (2013) WEB-DL 1080p от РиперАМ

89 | 52

15.1 ГБ

В этой теме нет новых непрочитанных сообщений. Шулер / Одесса-мама [01-10 из 10] (2013) DVDRip от New-Team | лицензия

1503 | 262

7.22 ГБ




Вы не можете начинать темы
Вы не можете отвечать на сообщения
Вы не можете редактировать свои сообщения
Вы не можете удалять свои сообщения
Вы не можете добавлять вложения

Перейти:  
Для Мосгорсуда, Роскомнадзора и рекламодателей: mosgorsud-torrent[собачка]yandex.ru
 Вход
ppkBB3cker v.2 © 2008-2014 @ PPK
[ Time : 0.037s | 14 Queries | GZIP : Off ]

Торрент трекер RUTOR.IN, Не можете зайти на rutor.org? Какой новый адрес рутор? Какое зеркало рутор? Не работает rutor.org и зеркала? Тогда наш торрент специально для вас. Rutor.in неофициальное зеркало rutor. В случае если у Вас заблокирован rutor или вдруг Вы не можете на него зайти, то Вы без труда сможете скачать бесплатно и без рекламы последние новинки кино, игр, сериалов и прочего у нас, на Rutor.in. Не нужно использовать прокси, чтобы зайти на рутор, достаточно воспользоваться нашим ресурсом. Все новые фильмы, игры, сериалы, книги и музыка за 2013 и 2014 годы через торрент бесплатно. Скачивайте фильмы в хорошем качестве, игры для пк, xbox, playstation без регистрации. У нас вы найдете новые Зарубежные сериалы и Русские сериалы 2013, 2014, 2015 годов. Оставайтесь с нами, качайте любимые фильмы, игры, сериалы, книги и музыку.